ONE Championship 49 Defending Honor [11.11.2016 720p CHN] WEB-DL-Rpunk

Ответить на тему
 
Автор Сообщение

Romapunk ®

Пол: Мужской

Стаж: 2 года 9 месяцев

Сообщений: 690

Откуда: Вологодская область

Создавать темы 12-Ноя-2016 10:39

[Цитировать]


Описание: ONE Championship 49 Defending Honor [11.11.2016 720p CHN] WEB-DL-Rpunk
Дата проведения: 11/11/2016
Место проведения: Singapore Indoor Stadium | Kallang, Singapore
Язык комментариев: Chinese

Fight card

Fight Card
Shinya Aoki vs. Eduard Folayang For lightweight title
Marat Gafurov vs. Narantungalag Jadambaa For featherweight title
Eddie Ng vs. Adrian Pang
Kotetsu Boku vs. Timofey Nastyukhin
Amir Khan vs. Samir Mrabet
Michelle Nicolini vs. Mona Samir
Walaa Abbas vs. Tiffany Teo
Benedict Ang vs. Ahmed Mujtaba
Muhamad Haidar vs. Nico Soe

Video Info

General
Complete name : ONE Championship 49 Defending Honor [11.11.2016 720p CHN] WEB-DL-Rpunk.mp4
Format : MPEG-4
Format profile : Base Media
Codec ID : isom
File size : 3.20 GiB
Duration : 3h 57mn
Overall bit rate mode : Variable
Overall bit rate : 1 926 Kbps
Writing application : Lavf56.15.102
Video
ID : 1
Format : AVC
Format/Info : Advanced Video Codec
Format profile : High@L3.1
Format settings, CABAC : Yes
Format settings, ReFrames : 2 frames
Codec ID : avc1
Codec ID/Info : Advanced Video Coding
Duration : 3h 57mn
Bit rate mode : Variable
Bit rate : 1 788 Kbps
Maximum bit rate : 3 000 Kbps
Width : 1 280 pixels
Height : 720 pixels
Display aspect ratio : 16:9
Frame rate mode : Constant
Frame rate : 25.000 fps
Color space : YUV
Chroma subsampling : 4:2:0
Bit depth : 8 bits
Scan type : Progressive
Bits/(Pixel*Frame) : 0.078
Stream size : 2.97 GiB (93%)
Audio
ID : 2
Format : AAC
Format/Info : Advanced Audio Codec
Format profile : LC
Codec ID : 40
Duration : 3h 57mn
Bit rate mode : Constant
Bit rate : 125 Kbps
Channel(s) : 2 channels
Channel positions : Front: L R
Sampling rate : 48.0 KHz
Compression mode : Lossy
Stream size : 213 MiB (7%)

Screenshots



[Профиль] [ЛС]
Показать сообщения:    
Ответить на тему

Текущее время: 17-Окт 05:04

Часовой пояс: UTC + 1



Вы не можете начинать темы
Вы не можете отвечать на сообщения
Вы не можете редактировать свои сообщения
Вы не можете удалять свои сообщения
Вы не можете голосовать в опросах
Вы не можете прикреплять файлы к сообщениям
Вы не можете скачивать файлы