UFC 185: Pettis vs. Dos Anjos (Preliminary Card + Main Card) [14.03.2015, MMA, HDTV 720p, ENG] :: Fight Tracker Russia

UFC 185: Pettis vs. Dos Anjos (Preliminary Card + Main Card) [14.03.2015, MMA, HDTV 720p, ENG]

Ответить на тему
 
Автор Сообщение

plarin ®

Пол: Мужской

Стаж: 2 года 4 месяца

Сообщений: 602

Откуда: Мадрид

Создавать темы 15-Мар-2015 19:22

[Цитировать]

UFC 185: Pettis vs. Dos Anjos (Preliminary + Main Card)- Год выпуска: 14.03.2015
Вид спорта: MMA
Продолжительность: 4:31:12
Язык комментариев: Английский-Описание: Предварительные и главные бои турнира "UFC 185: Pettis vs. Dos Anjos", прошедшего 14 марта 2015 года в "American Airlines Center", Даллас, Техас, США.-Автор рипа/записи: NWCHD | Sir.Paul-Состав:
1. UFC 185: Preliminary Card (1:19:34)
2. UFC 185: Main Card (3:11:37)-Качество: HDTV 720p
Формат: MP4 | MKV
Видео кодек: H264
Аудио кодек: AAC | AC3-

Технические характеристики и скриншоты

Preliminary Card (HDTV 720p)
Видео: 1280x720 (16:9), 29,970 fps, H264, ~4500 kbps avg, ~0.163 bit/pixel
Аудио: 48 kHz, AAC, 2/0 (L,R), ~192.00 kbps avg- -Main Card (HDTV 720p)
Видео: 1280x720 (16:9), 50,000 fps, H264, ~4500 kbps avg, ~0.098 bit/pixel
Аудио: 48 kHz, AC3 Dolby Digital, 2/0 (L,R) ch, ~384.00 kbps avg-

MediaInfo

UFC.185.Pettis.vs.Dos.Anjos.Prelims.2015.03.14.720p.HDTV.x264-NWCHD.mp4

General
Complete name : E:\uTorrent.Temp\Done\UFC.185.Pettis.vs.Dos.Anjos.Prelims.2015.03.14.720p.HDTV.x264-NWCHD.mp4
Format : MPEG-4
Format profile : Base Media
Codec ID : isom
File size : 2.61 GiB
Duration : 1h 19mn
Overall bit rate : 4 696 Kbps
Writing application : Lavf55.37.101
Video
ID : 1
Format : AVC
Format/Info : Advanced Video Codec
Format profile : High@L3.1
Format settings, CABAC : Yes
Format settings, ReFrames : 4 frames
Codec ID : avc1
Codec ID/Info : Advanced Video Coding
Duration : 1h 19mn
Bit rate : 4 500 Kbps
Width : 1 280 pixels
Height : 720 pixels
Display aspect ratio : 16:9
Original display aspect rat : 16:9
Frame rate mode : Variable
Frame rate : 29.970 fps
Minimum frame rate : 29.963 fps
Maximum frame rate : 30.000 fps
Color space : YUV
Chroma subsampling : 4:2:0
Bit depth : 8 bits
Scan type : Progressive
Bits/(Pixel*Frame) : 0.163
Stream size : 2.50 GiB (96%)
Writing library : x264 core 142 r2409 d6b4e63
Encoding settings : cabac=1 / ref=3 / deblock=1:0:0 / analyse=0x3:0x113 / me=hex / subme=7 / psy=1 / psy_rd=1.00:0.00 / mixed_ref=1 / me_range=16 / chroma_me=1 / trellis=1 / 8x8dct=1 / cqm=0 / deadzone=21,11 / fast_pskip=1 / chroma_qp_offset=-2 / threads=12 / lookahead_threads=2 / sliced_threads=0 / nr=0 / decimate=1 / interlaced=0 / bluray_compat=0 / constrained_intra=0 / bframes=3 / b_pyramid=2 / b_adapt=1 / b_bias=0 / direct=1 / weightb=1 / open_gop=0 / weightp=2 / keyint=250 / keyint_min=25 / scenecut=40 / intra_refresh=0 / rc_lookahead=40 / rc=abr / mbtree=1 / bitrate=4500 / ratetol=1.0 / qcomp=0.60 / qpmin=0 / qpmax=69 / qpstep=4 / ip_ratio=1.40 / aq=1:1.00
Audio
ID : 2
Format : AAC
Format/Info : Advanced Audio Codec
Format profile : LC
Codec ID : 40
Duration : 1h 19mn
Bit rate mode : Constant
Bit rate : 192 Kbps
Channel(s) : 2 channels
Channel positions : Front: L R
Sampling rate : 48.0 KHz
Compression mode : Lossy
Stream size : 110 MiB (4%)

UFC.185.14th.March.2015.HDTV.720p-Sir.Paul.mkv

General
Unique ID : 304315822874864388143792256289784589910 (0xE4F118781928FEF6C4255F8CBF09EE56)
Complete name : E:\uTorrent.Temp\Done\UFC.185.14th.March.2015.HDTV.720p-Sir.Paul.mkv
Format : Matroska
Format version : Version 2
File size : 6.53 GiB
Duration : 3h 11mn
Overall bit rate : 4 881 Kbps
Writing application : HandBrake 0.10.0 2014112200
Writing library : Lavf55.12.0
Video
ID : 1
Format : AVC
Format/Info : Advanced Video Codec
Format profile : Main@L4.0
Format settings, CABAC : Yes
Format settings, ReFrames : 4 frames
Codec ID : V_MPEG4/ISO/AVC
Duration : 3h 11mn
Nominal bit rate : 4 500 Kbps
Width : 1 280 pixels
Height : 720 pixels
Display aspect ratio : 16:9
Frame rate mode : Constant
Frame rate : 50.000 fps
Color space : YUV
Chroma subsampling : 4:2:0
Bit depth : 8 bits
Scan type : Progressive
Bits/(Pixel*Frame) : 0.098
Writing library : x264 core 142 r2479 dd79a61
Encoding settings : cabac=1 / ref=1 / deblock=1:0:0 / analyse=0x1:0x111 / me=hex / subme=2 / psy=1 / psy_rd=1.00:0.00 / mixed_ref=0 / me_range=16 / chroma_me=1 / trellis=0 / 8x8dct=0 / cqm=0 / deadzone=21,11 / fast_pskip=1 / chroma_qp_offset=0 / threads=12 / lookahead_threads=4 / sliced_threads=0 / nr=0 / decimate=1 / interlaced=0 / bluray_compat=0 / constrained_intra=0 / bframes=3 / b_pyramid=2 / b_adapt=1 / b_bias=0 / direct=1 / weightb=1 / open_gop=0 / weightp=1 / keyint=500 / keyint_min=50 / scenecut=40 / intra_refresh=0 / rc_lookahead=10 / rc=abr / mbtree=1 / bitrate=4500 / ratetol=1.0 / qcomp=0.60 / qpmin=0 / qpmax=69 / qpstep=4 / vbv_maxrate=20000 / vbv_bufsize=25000 / nal_hrd=none / filler=0 / ip_ratio=1.40 / aq=1:1.00
Default : Yes
Forced : No
Color primaries : BT.709
Transfer characteristics : BT.709
Matrix coefficients : BT.709
Color range : Limited
Audio
ID : 2
Format : AAC
Format/Info : Advanced Audio Codec
Format profile : LC
Codec ID : A_AAC
Duration : 3h 11mn
Channel(s) : 2 channels
Channel positions : Front: L R
Sampling rate : 48.0 KHz
Compression mode : Lossy
Title : Stereo
Language : English
Default : Yes
Forced : No

Кард

Preliminary Card [Fox Sports 1]:
[Lightweight] Ross Pearson vs. Sam Stout
[Middleweight] Elias Theodorou vs. Roger Narvaez
[Lightweight] Daron Cruickshank vs. Beneil Dariush
[Heavyweight] Jared Rosholt vs. Josh Copeland-Main Card [PPV]:
[Lightweight] Anthony Pettis (c) vs. Rafael dos Anjos *For the UFC Lightweight Championship.
[Women's Strawweight] Carla Esparza (c) vs. Joanna Jedrzejczyk *For the UFC Women's Strawweight Championship.
[Welterweight] Johny Hendricks vs. Matt Brown
[Heavyweight] Roy Nelson vs. Alistair Overeem
[Flyweight] Chris Cariaso vs. Henry Cejudo
[Профиль] [ЛС]
Показать сообщения:    
Ответить на тему

Текущее время: 29-Апр 10:33

Часовой пояс: UTC + 1



Вы не можете начинать темы
Вы не можете отвечать на сообщения
Вы не можете редактировать свои сообщения
Вы не можете удалять свои сообщения
Вы не можете голосовать в опросах
Вы не можете прикреплять файлы к сообщениям
Вы не можете скачивать файлы