UFC 185: Pettis vs. Dos Anjos (Early Prelims) [14.03.2015, MMA, WEB-DL 720p, ENG]

Ответить на тему
 
Автор Сообщение

plarin ®

Пол: Мужской

Стаж: 2 года 7 месяцев

Сообщений: 619

Откуда: Мадрид

Создавать темы 15-Мар-2015 19:21

[Цитировать]

UFC 185: Pettis vs. Dos Anjos (Early Prelims)- Год выпуска: 14.03.2015
Вид спорта: MMA
Продолжительность: 1:29:44
Язык комментариев: Английский-Описание: Ранние предварительные бои турнира "UFC 185: Pettis vs. Dos Anjos", прошедшего 14 марта 2015 года в "American Airlines Center", Даллас, Техас, США.-Автор рипа/записи: ViLLAiNS-Качество: WEB-DL 720p
Формат: MP4
Видео: 1280x720 (16:9), 29,970 fps, H264, ~4500 kbps avg, ~0.155 bit/pixel
Аудио: 44.1 kHz, AAC, 2/0 (L,R), ~128.00 kbps avg-

Скриншоты

Кард

[Flyweight] Sergio Pettis vs. Ryan Benoit
[Lightweight] Jake Lindsey vs. Joseph Duffy
[Women's Bantamweight] Larissa Pacheco vs. Germaine de Randamie

MediaInfo

General
Complete name : E:\uTorrent.Temp\Temp\UFC.185.Pettis.vs.Dos.Anjos.Early.Prelims.720p.WEB.DL.x264-ViLLAiNS.mp4
Format : MPEG-4
Format profile : Base Media
Codec ID : isom
File size : 2.77 GiB
Duration : 1h 29mn
Overall bit rate : 4 414 Kbps
Writing application : Lavf56.25.101
Video
ID : 1
Format : AVC
Format/Info : Advanced Video Codec
Format profile : Main@L4.0
Format settings, CABAC : Yes
Format settings, ReFrames : 3 frames
Codec ID : avc1
Codec ID/Info : Advanced Video Coding
Duration : 1h 29mn
Bit rate : 4 276 Kbps
Width : 1 280 pixels
Height : 720 pixels
Display aspect ratio : 16:9
Frame rate mode : Constant
Frame rate : 29.970 fps
Color space : YUV
Chroma subsampling : 4:2:0
Bit depth : 8 bits
Scan type : Progressive
Bits/(Pixel*Frame) : 0.155
Stream size : 2.68 GiB (97%)
Audio
ID : 2
Format : AAC
Format/Info : Advanced Audio Codec
Format profile : LC
Codec ID : 40
Duration : 1h 29mn
Bit rate mode : Constant
Bit rate : 128 Kbps
Channel(s) : 2 channels
Channel positions : Front: L R
Sampling rate : 44.1 KHz
Compression mode : Lossy
Stream size : 82.3 MiB (3%)
[Профиль] [ЛС]
Показать сообщения:    
Ответить на тему

Текущее время: 21-Июл 13:42

Часовой пояс: UTC + 1



Вы не можете начинать темы
Вы не можете отвечать на сообщения
Вы не можете редактировать свои сообщения
Вы не можете удалять свои сообщения
Вы не можете голосовать в опросах
Вы не можете прикреплять файлы к сообщениям
Вы не можете скачивать файлы