UFC 185: Pettis vs. Dos Anjos (Full Event) [14.03.2015, MMA, WEBRip 360p | HDTV 400p, ENG]

Ответить на тему
 
Автор Сообщение

plarin ®

Пол: Мужской

Стаж: 2 года 9 месяцев

Сообщений: 619

Откуда: Мадрид

Создавать темы 15-Мар-2015 08:54

[Цитировать]

UFC 185: Pettis vs. Dos Anjos (Full Event)- Год выпуска: 14.03.2015
Вид спорта: MMA
Продолжительность: 6:01:49
Язык комментариев: Английский-Описание: Все бои турнира "UFC 185: Pettis vs. Dos Anjos", прошедшего 14 марта 2015 года в "American Airlines Center", Даллас, Техас, США.-Автор рипа/записи: Sir.Paul-Состав:
1. UFC 185: Early Prelims (1:17:40)
2. UFC 185: Preliminary Card (1:32:30)
2. UFC 185: Main Card (3:11:37)-Качество: WEBRip 360p | HDTV 400p
Формат: MKV | MP4
Видео кодек: H264
Аудио кодек: AAC-

Технические характеристики и скриншоты

Early Prelims (WEBRip 360p)
Видео: 640x360 (16:9), 29,970 fps, H264, ~450 kbps avg, ~0.070 bit/pixel
Аудио: 44.1 kHz, AAC, 2/0 (L,R), ~128.00 kbps avg- -Preliminary Card (HDTV 400p)
Видео: 700x400 (16:9), 29,970 fps, H264, ~1100 kbps avg, ~0.131 bit/pixel
Аудио: 48 kHz, AAC, 2/0 (L,R), ~160.00 kbps avg- -Main Card (HDTV 400p)
Видео: 700x400 (16:9), 29,970 fps, H264, ~1100 kbps avg, ~0.131 bit/pixel
Аудио: 48 kHz, AAC, 2/0 (L,R), ~160.00 kbps avg-

MediaInfo

UFC 185 Early Prelims WEBRiP h264.mkv

General
Unique ID : 180291621643858528341336059091003659001 (0x87A2E73DA8E9998E8B5C13A32B0452F9)
Complete name : E:\ConverXtoDVD.Temp\UFC 184. Rousey vs. Zingano (Full Event) [SD 400p, ENG]\UFC 185 Early Prelims WEBRiP h264.mkv
Format : Matroska
Format version : Version 4 / Version 2
File size : 260 MiB
Duration : 1h 17mn
Overall bit rate : 469 Kbps
Encoded date : UTC 2015-03-14 23:54:34
Writing application : mkvmerge v7.7.0 ('Six Voices') 32bit built on Feb 28 2015 23:23:00
Writing library : libebml v1.3.1 + libmatroska v1.4.2
DURATION : 01:17:40.895000000
NUMBER_OF_FRAMES : 200728
NUMBER_OF_BYTES : 18643843
_STATISTICS_WRITING_APP : mkvmerge v7.7.0 ('Six Voices') 32bit built on Feb 28 2015 23:23:00
_STATISTICS_WRITING_DATE_UT : 2015-03-14 23:54:34
_STATISTICS_TAGS : BPS DURATION NUMBER_OF_FRAMES NUMBER_OF_BYTES
Video
ID : 1
Format : AVC
Format/Info : Advanced Video Codec
Format profile : High@L3.0
Format settings, CABAC : Yes
Format settings, ReFrames : 4 frames
Codec ID : V_MPEG4/ISO/AVC
Width : 640 pixels
Height : 360 pixels
Display aspect ratio : 16:9
Frame rate mode : Variable
Color space : YUV
Chroma subsampling : 4:2:0
Bit depth : 8 bits
Scan type : Progressive
Default : Yes
Forced : No
Audio
ID : 2
Format : AAC
Format/Info : Advanced Audio Codec
Format profile : LC
Codec ID : A_AAC
Duration : 1h 17mn
Channel(s) : 2 channels
Channel positions : Front: L R
Sampling rate : 44.1 KHz
Compression mode : Lossy
Default : Yes
Forced : No

UFC.185.Prelims.14th.March.2015.HDTV.x264-Sir.Paul.mp4

General
Complete name : E:\ConverXtoDVD.Temp\UFC 184. Rousey vs. Zingano (Full Event) [SD 400p, ENG]\UFC.185.Prelims.14th.March.2015.HDTV.x264-Sir.Paul.mp4
Format : MPEG-4
Format profile : Base Media / Version 2
Codec ID : mp42
File size : 830 MiB
Duration : 1h 32mn
Overall bit rate mode : Variable
Overall bit rate : 1 255 Kbps
Writing application : HandBrake 0.10.0 2014112200
Video
ID : 1
Format : AVC
Format/Info : Advanced Video Codec
Format profile : Main@L4.0
Format settings, CABAC : Yes
Format settings, ReFrames : 4 frames
Codec ID : avc1
Codec ID/Info : Advanced Video Coding
Duration : 1h 32mn
Bit rate : 1 100 Kbps
Width : 700 pixels
Height : 400 pixels
Display aspect ratio : 16:9
Frame rate mode : Constant
Frame rate : 29.970 fps
Color space : YUV
Chroma subsampling : 4:2:0
Bit depth : 8 bits
Scan type : Progressive
Bits/(Pixel*Frame) : 0.131
Stream size : 720 MiB (87%)
Writing library : x264 core 142 r2479 dd79a61
Encoding settings : cabac=1 / ref=1 / deblock=1:0:0 / analyse=0x1:0x111 / me=hex / subme=2 / psy=1 / psy_rd=1.00:0.00 / mixed_ref=0 / me_range=16 / chroma_me=1 / trellis=0 / 8x8dct=0 / cqm=0 / deadzone=21,11 / fast_pskip=1 / chroma_qp_offset=0 / threads=12 / lookahead_threads=3 / sliced_threads=0 / nr=0 / decimate=1 / interlaced=0 / bluray_compat=0 / constrained_intra=0 / bframes=3 / b_pyramid=2 / b_adapt=1 / b_bias=0 / direct=1 / weightb=1 / open_gop=0 / weightp=1 / keyint=300 / keyint_min=30 / scenecut=40 / intra_refresh=0 / rc_lookahead=10 / rc=abr / mbtree=1 / bitrate=1100 / ratetol=1.0 / qcomp=0.60 / qpmin=0 / qpmax=69 / qpstep=4 / vbv_maxrate=20000 / vbv_bufsize=25000 / nal_hrd=none / filler=0 / ip_ratio=1.40 / aq=1:1.00
Color primaries : BT.709
Transfer characteristics : BT.709
Matrix coefficients : BT.709
Color range : Limited
Audio
ID : 2
Format : AAC
Format/Info : Advanced Audio Codec
Format profile : LC
Codec ID : 40
Duration : 1h 32mn
Bit rate mode : Variable
Bit rate : 160 Kbps
Channel(s) : 2 channels
Channel positions : Front: L R
Sampling rate : 48.0 KHz
Compression mode : Lossy
Stream size : 106 MiB (13%)
Title : Stereo / Stereo
Language : English

UFC.185.14th.March.2015.HDTV.x264-Sir.Paul.mp4

General
Complete name : E:\uTorrent.Temp\Temp\UFC 185. Pettis vs. Dos Anjos (Full Event) [SD 400p, ENG]\UFC.185.14th.March.2015.HDTV.x264-Sir.Paul.mp4
Format : MPEG-4
Format profile : Base Media / Version 2
Codec ID : mp42
File size : 1.69 GiB
Duration : 3h 11mn
Overall bit rate mode : Variable
Overall bit rate : 1 264 Kbps
Writing application : HandBrake 0.10.0 2014112200
Video
ID : 1
Format : AVC
Format/Info : Advanced Video Codec
Format profile : Main@L4.0
Format settings, CABAC : Yes
Format settings, ReFrames : 4 frames
Codec ID : avc1
Codec ID/Info : Advanced Video Coding
Duration : 3h 11mn
Bit rate : 1 100 Kbps
Width : 700 pixels
Height : 400 pixels
Display aspect ratio : 16:9
Frame rate mode : Constant
Frame rate : 29.970 fps
Color space : YUV
Chroma subsampling : 4:2:0
Bit depth : 8 bits
Scan type : Progressive
Bits/(Pixel*Frame) : 0.131
Stream size : 1.47 GiB (87%)
Writing library : x264 core 142 r2479 dd79a61
Encoding settings : cabac=1 / ref=1 / deblock=1:0:0 / analyse=0x1:0x111 / me=hex / subme=2 / psy=1 / psy_rd=1.00:0.00 / mixed_ref=0 / me_range=16 / chroma_me=1 / trellis=0 / 8x8dct=0 / cqm=0 / deadzone=21,11 / fast_pskip=1 / chroma_qp_offset=0 / threads=12 / lookahead_threads=3 / sliced_threads=0 / nr=0 / decimate=1 / interlaced=0 / bluray_compat=0 / constrained_intra=0 / bframes=3 / b_pyramid=2 / b_adapt=1 / b_bias=0 / direct=1 / weightb=1 / open_gop=0 / weightp=1 / keyint=300 / keyint_min=30 / scenecut=40 / intra_refresh=0 / rc_lookahead=10 / rc=abr / mbtree=1 / bitrate=1100 / ratetol=1.0 / qcomp=0.60 / qpmin=0 / qpmax=69 / qpstep=4 / vbv_maxrate=20000 / vbv_bufsize=25000 / nal_hrd=none / filler=0 / ip_ratio=1.40 / aq=1:1.00
Color primaries : BT.709
Transfer characteristics : BT.709
Matrix coefficients : BT.709
Color range : Limited
Audio
ID : 2
Format : AAC
Format/Info : Advanced Audio Codec
Format profile : LC
Codec ID : 40
Duration : 3h 11mn
Bit rate mode : Variable
Bit rate : 160 Kbps
Channel(s) : 2 channels
Channel positions : Front: L R
Sampling rate : 48.0 KHz
Compression mode : Lossy
Stream size : 220 MiB (13%)
Title : Stereo / Stereo
Language : English

Кард

Early Prelims [UFC Fight Pass]:
[Flyweight] Sergio Pettis vs. Ryan Benoit
[Lightweight] Jake Lindsey vs. Joseph Duffy
[Women's Bantamweight] Larissa Pacheco vs. Germaine de Randamie-Preliminary Card [Fox Sports 1]:
[Lightweight] Ross Pearson vs. Sam Stout
[Middleweight] Elias Theodorou vs. Roger Narvaez
[Lightweight] Daron Cruickshank vs. Beneil Dariush
[Heavyweight] Jared Rosholt vs. Josh Copeland-Main Card [PPV]:
[Lightweight] Anthony Pettis (c) vs. Rafael dos Anjos *For the UFC Lightweight Championship.
[Women's Strawweight] Carla Esparza (c) vs. Joanna Jedrzejczyk *For the UFC Women's Strawweight Championship.
[Welterweight] Johny Hendricks vs. Matt Brown
[Heavyweight] Roy Nelson vs. Alistair Overeem
[Flyweight] Chris Cariaso vs. Henry Cejudo
[Профиль] [ЛС]
Показать сообщения:    
Ответить на тему

Текущее время: 17-Окт 14:10

Часовой пояс: UTC + 1



Вы не можете начинать темы
Вы не можете отвечать на сообщения
Вы не можете редактировать свои сообщения
Вы не можете удалять свои сообщения
Вы не можете голосовать в опросах
Вы не можете прикреплять файлы к сообщениям
Вы не можете скачивать файлы