WSOF 33 Main Card [07.10.2016 720p ENG] WEB-DL-Rpunk

Ответить на тему
 
Автор Сообщение

Romapunk ®

Пол: Мужской

Стаж: 2 года 6 месяцев

Сообщений: 527

Откуда: Вологодская область

Создавать темы 08-Окт-2016 10:02

[Цитировать]


Описание: WSOF 33 Main Card [07.10.2016 720p ENG] WEB-DL-Rpunk
Дата проведения: 07/10/2016
Место проведения: Kansas City Memorial Auditorium | Kansas City, Kansas, USA
Язык комментариев: English

Fight card

Justin Gaethje vs. Ozzy Dugulubgov For lightweight title
David Branch vs. Vinny Magalhaes For light heavyweight title
Jason High vs. Joao Zeferino
Luiz Firmino vs. Brian Foster
John Howard vs. Abubakar Nurmagomedov
Ashley Gooch vs. Shawn Jordan

Video Info

General
Complete name : WSOF 33 Main Card [07.10.2016 720p ENG] WEB-DL-Rpunk.mp4
Format : MPEG-4
Format profile : Base Media
Codec ID : isom
File size : 2.33 GiB
Duration : 2h 57mn
Overall bit rate mode : Variable
Overall bit rate : 1 877 Kbps
Writing application : Lavf56.15.102
Video
ID : 1
Format : AVC
Format/Info : Advanced Video Codec
Format profile : High@L3.1
Format settings, CABAC : Yes
Format settings, ReFrames : 2 frames
Codec ID : avc1
Codec ID/Info : Advanced Video Coding
Duration : 2h 57mn
Bit rate mode : Variable
Bit rate : 1 739 Kbps
Maximum bit rate : 3 000 Kbps
Width : 1 280 pixels
Height : 720 pixels
Display aspect ratio : 16:9
Frame rate mode : Constant
Frame rate : 25.000 fps
Color space : YUV
Chroma subsampling : 4:2:0
Bit depth : 8 bits
Scan type : Progressive
Bits/(Pixel*Frame) : 0.075
Stream size : 2.16 GiB (93%)
Audio
ID : 2
Format : AAC
Format/Info : Advanced Audio Codec
Format profile : LC
Codec ID : 40
Duration : 2h 57mn
Bit rate mode : Variable
Bit rate : 125 Kbps
Maximum bit rate : 127 Kbps
Channel(s) : 2 channels
Channel positions : Front: L R
Sampling rate : 48.0 KHz
Compression mode : Lossy
Stream size : 159 MiB (7%)

Screenshots



[Профиль] [ЛС]
Показать сообщения:    
Ответить на тему

Текущее время: 27-Июн 13:20

Часовой пояс: UTC + 1



Вы не можете начинать темы
Вы не можете отвечать на сообщения
Вы не можете редактировать свои сообщения
Вы не можете удалять свои сообщения
Вы не можете голосовать в опросах
Вы не можете прикреплять файлы к сообщениям
Вы не можете скачивать файлы