KSW 36 [01.10.2016 360p POL] :: Fight Tracker Russia

KSW 36 [01.10.2016 360p POL]

Ответить на тему
 
Автор Сообщение

Romapunk ®

Пол: Мужской

Стаж: 2 года 1 месяц

Сообщений: 455

Откуда: Вологодская область

Создавать темы 02-Окт-2016 17:50

[Цитировать]


Описание: KSW 36 [01.10.2016 360p POL]
Дата проведения: 01/10/2016
Место проведения: Hala CRS arena | Zielona Góra, Poland.
Язык комментариев: Polish

Fight card

Middleweight Poland Michael Materla vs. Brazil Rousimar Palhares
Light Heavyweight Poland Tomasz Narkun (c) vs. Cameroon R. Sokoudjou For the KSW Light Heavyweight Championship
Lightweight Mateusz Gamrot vs. Renato Pezinho
Womens Flyweight Ariane Lipski vs. Sheila Gaff
Heavyweight Poland Michal Wlodarek vs. Poland Michal Kita
Featherweight Poland Leszek Krakowski vs. Japan Kleber Koike Erbst
Womens Flyweight Katarzyna Lubonska vs. Diana Belbita
Lightweight Bartlomiej Kurczewski vs. Grzegorz Szulakowski
Lightweight Tomasz Matusewicz vs. Mariusz Mazur

Video Info

General
Complete name : KSW 36 Cala gala.avi.avi
Format : AVI
Format/Info : Audio Video Interleave
Format profile : OpenDML
File size : 2.18 GiB
Duration : 3h 52mn
Overall bit rate : 1 340 Kbps
Writing application : Lavf56.40.101
Video
ID : 0
Format : MPEG-4 Visual
Format profile : Simple@L1
Format settings, BVOP : No
Format settings, QPel : No
Format settings, GMC : No warppoints
Format settings, Matrix : Default (H.263)
Codec ID : DIVX
Codec ID/Info : Project Mayo
Codec ID/Hint : DivX 4
Duration : 3h 52mn
Bit rate : 1 200 Kbps
Width : 640 pixels
Height : 360 pixels
Display aspect ratio : 16:9
Frame rate : 25.000 fps
Color space : YUV
Chroma subsampling : 4:2:0
Bit depth : 8 bits
Scan type : Progressive
Compression mode : Lossy
Bits/(Pixel*Frame) : 0.208
Stream size : 1.95 GiB (90%)
Writing library : Lavc56.60.100
Audio
ID : 1
Format : MPEG Audio
Format version : Version 1
Format profile : Layer 3
Mode : Joint stereo
Codec ID : 55
Codec ID/Hint : MP3
Duration : 3h 52mn
Bit rate mode : Constant
Bit rate : 128 Kbps
Channel(s) : 2 channels
Sampling rate : 44.1 KHz
Compression mode : Lossy
Stream size : 213 MiB (10%)
Alignment : Aligned on interleaves
Interleave, duration : 26 ms (0.65 video frame)
Interleave, preload duration : 26 ms

Screenshots



[Профиль] [ЛС]
Показать сообщения:    
Ответить на тему

Текущее время: 20-Фев 18:47

Часовой пояс: UTC + 1



Вы не можете начинать темы
Вы не можете отвечать на сообщения
Вы не можете редактировать свои сообщения
Вы не можете удалять свои сообщения
Вы не можете голосовать в опросах
Вы не можете прикреплять файлы к сообщениям
Вы не можете скачивать файлы