ONE Championship 47 Unbreakable Warriors (Full Event) [02.09.2016 720p INT] WEB-DL-Rpunk :: Fight Tracker Russia

ONE Championship 47 Unbreakable Warriors (Full Event) [02.09.2016 720p INT] WEB-DL-Rpunk

Ответить на тему
 
Автор Сообщение

Romapunk ®

Пол: Мужской

Стаж: 2 года 4 месяца

Сообщений: 505

Откуда: Вологодская область

Создавать темы 02-Сен-2016 20:24

[Цитировать]


Описание: ONE Championship 47 Unbreakable Warriors (Full Event) [02.09.2016 720p INT] WEB-DL-Rpunk
Дата проведения: 02/09/2016
Место проведения: Stadium Negara | Kuala Lumpur, Malaysia
Язык комментариев: Интершум

Fight card

Video Info

General
Complete name : ONE Championship 47 Unbreakable Warriors (Full Event) [02.09.2016 720p INT] WEB-DL-Rpunk.mp4
Format : MPEG-4
Format profile : Base Media
Codec ID : isom
File size : 2.36 GiB
Duration : 2h 54mn
Overall bit rate mode : Variable
Overall bit rate : 1 931 Kbps
Writing application : Lavf56.15.102
Video
ID : 1
Format : AVC
Format/Info : Advanced Video Codec
Format profile : High@L3.1
Format settings, CABAC : Yes
Format settings, ReFrames : 2 frames
Codec ID : avc1
Codec ID/Info : Advanced Video Coding
Duration : 2h 54mn
Bit rate mode : Variable
Bit rate : 1 793 Kbps
Maximum bit rate : 3 000 Kbps
Width : 1 280 pixels
Height : 720 pixels
Display aspect ratio : 16:9
Frame rate mode : Variable
Frame rate : 25.000 fps
Minimum frame rate : 5.000 fps
Maximum frame rate : 25.000 fps
Color space : YUV
Chroma subsampling : 4:2:0
Bit depth : 8 bits
Scan type : Progressive
Bits/(Pixel*Frame) : 0.078
Stream size : 2.19 GiB (93%)
Audio
ID : 2
Format : AAC
Format/Info : Advanced Audio Codec
Format profile : LC
Codec ID : 40
Duration : 2h 54mn
Bit rate mode : Constant
Bit rate : 125 Kbps
Channel(s) : 2 channels
Channel positions : Front: L R
Sampling rate : 48.0 KHz
Compression mode : Lossy
Stream size : 157 MiB (6%)

Screenshots



[Профиль] [ЛС]

Pakimer

Пол: Не указан

Стаж: 1 год 10 месяцев

Сообщений: 36

Создавать темы 03-Сен-2016 06:49 (спустя 10 часов)

[Цитировать]

спасибо!
[Профиль] [ЛС]

Romapunk ®

Пол: Мужской

Стаж: 2 года 4 месяца

Сообщений: 505

Откуда: Вологодская область

Создавать темы 03-Сен-2016 10:44 (спустя 3 часа)

[Цитировать]

Pakimer, Не перехвали)
[Профиль] [ЛС]
Показать сообщения:    
Ответить на тему

Текущее время: 23-Апр 22:38

Часовой пояс: UTC + 1



Вы не можете начинать темы
Вы не можете отвечать на сообщения
Вы не можете редактировать свои сообщения
Вы не можете удалять свои сообщения
Вы не можете голосовать в опросах
Вы не можете прикреплять файлы к сообщениям
Вы не можете скачивать файлы