Bellator 134: Newton vs. McGeary [The British Invasion] (Full Event) [27.02.2015, MMA, WEB-DL|HDTV 720p, ENG]

Ответить на тему
 
Автор Сообщение

plarin ®

Пол: Мужской

Стаж: 2 года 7 месяцев

Сообщений: 619

Откуда: Мадрид

Создавать темы 01-Мар-2015 10:49

[Цитировать]

Bellator 134: Newton vs. McGeary [The British Invasion] (Full Event)- Год выпуска: 27.02.2015
Вид спорта: MMA
Продолжительность: 3:53:45
Язык комментариев: Английский-Описание: Все бои турнира "Bellator 134: Newton vs. McGeary [The British Invasion]", прошедшего 27 февраля 2015 года в "Mohegan Sun Arena", Анкасвилл, Монтвилл, Коннектикут, США.-Автор рипа/записи: ViLLAiNS | NWCHD-Состав:
1. Bellator 134: Preliminary Card (1:27:16)
2. Bellator 134: Main Card (2:26:28)-Качество: WEB-DL|HDTV 720p
Формат: MP4
Видео кодек: H264
Аудио кодек: AAC-

Технические характеристики и скриншоты

Preliminary Card (WEB-DL 720p)
Видео: 1280x720 (16:9), 29,970 fps, H264, ~3400 kbps avg, ~0.123 bit/pixel
Аудио: 48 kHz, AAC, 2/0 (L,R), ~96.00 kbps avg- -Main Card (HDTV 720p)
Видео: 1280x720 (16:9), 29,970 fps, H264, ~4500 kbps avg, ~0.163 bit/pixel
Аудио: 48 kHz, AAC, 2/0 (L,R), ~192.00 kbps avg-

MediaInfo

Bellator.MMA.134.Prelims.720p.WEB.DL.x264-ViLLAiNS.mp4

General
Complete name : E:\uTorrent.Temp\Temp\Bellator 134. Newton vs. McGeary (Full Event) [HD 720p, ENG]\Bellator.MMA.134.Prelims.720p.WEB.DL.x264-ViLLAiNS.mp4
Format : MPEG-4
Format profile : Base Media
Codec ID : isom
File size : 2.13 GiB
Duration : 1h 27mn
Overall bit rate mode : Constant
Overall bit rate : 3 492 Kbps
Writing application : Lavf53.31.100
Video
ID : 1
Format : AVC
Format/Info : Advanced Video Codec
Format profile : High@L3.2
Format settings, CABAC : Yes
Format settings, ReFrames : 4 frames
Codec ID : avc1
Codec ID/Info : Advanced Video Coding
Duration : 1h 27mn
Bit rate mode : Constant
Bit rate : 3 404 Kbps
Width : 1 280 pixels
Height : 720 pixels
Display aspect ratio : 16:9
Frame rate mode : Variable
Frame rate : 29.970 fps
Minimum frame rate : 29.970 fps
Maximum frame rate : 30.000 fps
Standard : NTSC
Color space : YUV
Chroma subsampling : 4:2:0
Bit depth : 8 bits
Scan type : Progressive
Bits/(Pixel*Frame) : 0.123
Stream size : 2.07 GiB (97%)
Color primaries : BT.709
Transfer characteristics : BT.709
Matrix coefficients : BT.709
Color range : Limited
Audio
ID : 2
Format : AAC
Format/Info : Advanced Audio Codec
Format profile : HE-AAC / LC
Codec ID : 40
Duration : 1h 27mn
Duration_LastFrame : -43ms
Bit rate mode : Constant
Bit rate : 96.0 Kbps
Channel(s) : 2 channels
Channel positions : Front: L R
Sampling rate : 48.0 KHz / 24.0 KHz
Compression mode : Lossy
Stream size : 59.1 MiB (3%)
Text #1
ID : 1-CC1
Format : EIA-608
Muxing mode : SCTE 128 / DTVCC Transport
Muxing mode, more info : Muxed in Video #1
Duration : 1h 27mn
Bit rate mode : Constant
Stream size : 0.00 Byte (0%)
Encoded stream size : 0.00 Byte (0%)
Text #2
ID : 1-1
Format : EIA-708
Muxing mode : SCTE 128 / DTVCC Transport
Muxing mode, more info : Muxed in Video #1
Duration : 1h 27mn
Bit rate mode : Constant
Stream size : 0.00 Byte (0%)
Encoded stream size : 0.00 Byte (0%)

Bellator.134.Newton.vs.McGeary.2015.02.27.720p.HDTV.x264-NWCHD.mp4

General
Complete name : E:\uTorrent.Temp\Temp\Bellator 134. Newton vs. McGeary (Full Event) [HD 720p, ENG]\Bellator.134.Newton.vs.McGeary.2015.02.27.720p.HDTV.x264-NWCHD.mp4
Format : MPEG-4
Format profile : Base Media
Codec ID : isom
File size : 4.80 GiB
Duration : 2h 26mn
Overall bit rate : 4 694 Kbps
Writing application : Lavf55.37.101
Video
ID : 1
Format : AVC
Format/Info : Advanced Video Codec
Format profile : High@L3.1
Format settings, CABAC : Yes
Format settings, ReFrames : 4 frames
Codec ID : avc1
Codec ID/Info : Advanced Video Coding
Duration : 2h 26mn
Bit rate : 4 500 Kbps
Width : 1 280 pixels
Height : 720 pixels
Display aspect ratio : 16:9
Original display aspect rat : 16:9
Frame rate mode : Constant
Frame rate : 29.970 fps
Color space : YUV
Chroma subsampling : 4:2:0
Bit depth : 8 bits
Scan type : Progressive
Bits/(Pixel*Frame) : 0.163
Stream size : 4.59 GiB (96%)
Writing library : x264 core 142 r2409 d6b4e63
Encoding settings : cabac=1 / ref=3 / deblock=1:0:0 / analyse=0x3:0x113 / me=hex / subme=7 / psy=1 / psy_rd=1.00:0.00 / mixed_ref=1 / me_range=16 / chroma_me=1 / trellis=1 / 8x8dct=1 / cqm=0 / deadzone=21,11 / fast_pskip=1 / chroma_qp_offset=-2 / threads=12 / lookahead_threads=2 / sliced_threads=0 / nr=0 / decimate=1 / interlaced=0 / bluray_compat=0 / constrained_intra=0 / bframes=3 / b_pyramid=2 / b_adapt=1 / b_bias=0 / direct=1 / weightb=1 / open_gop=0 / weightp=2 / keyint=250 / keyint_min=25 / scenecut=40 / intra_refresh=0 / rc_lookahead=40 / rc=abr / mbtree=1 / bitrate=4500 / ratetol=1.0 / qcomp=0.60 / qpmin=0 / qpmax=69 / qpstep=4 / ip_ratio=1.40 / aq=1:1.00
Audio
ID : 2
Format : AAC
Format/Info : Advanced Audio Codec
Format profile : LC
Codec ID : 40
Duration : 2h 26mn
Bit rate mode : Constant
Bit rate : 192 Kbps
Channel(s) : 2 channels
Channel positions : Front: L R
Sampling rate : 48.0 KHz
Compression mode : Lossy
Stream size : 202 MiB (4%)

Кард

Preliminary Card:
[Lightweight] Michael Mangan vs. Dean Hancock
[Featherweight] Matt Bessette vs. Josh LaBerge
[Heavyweight] Raphael Butler vs. Josh Diekmann
[Middleweight] Tamdan McCrory vs. Jason Butcher
[Welterweight] Bobby Flynn vs. Neiman Gracie
[Bantamweight] Marvin Maldonado vs. Blair Tugman-Preliminary Card:
[Light Heavyweight] Emanuel Newton (c) vs. Liam McGeary * For the Bellator Light Heavyweight Championship
[Welterweight] Paul Daley vs. Andre Santos
[Heavyweight] Cheick Kongo vs. Muhammed Lawal
[Light Heavyweight] Rameau Thierry Sokoudjou vs. Linton Vassell
[Welterweight] Brennan Ward vs. Curtis Millender
[Профиль] [ЛС]
Показать сообщения:    
Ответить на тему

Текущее время: 28-Июл 12:01

Часовой пояс: UTC + 1



Вы не можете начинать темы
Вы не можете отвечать на сообщения
Вы не можете редактировать свои сообщения
Вы не можете удалять свои сообщения
Вы не можете голосовать в опросах
Вы не можете прикреплять файлы к сообщениям
Вы не можете скачивать файлы