Plotforma S-70 - 7th International Professional Combat Sambo Tournament [21.08.2016 MPEG-TS 576i RU]-Rpunk

Ответить на тему
 
Автор Сообщение

Romapunk ®

Пол: Мужской

Стаж: 2 года 8 месяцев

Сообщений: 602

Откуда: Вологодская область

Создавать темы 25-Авг-2016 16:02

[Цитировать]


Описание: Plotforma S-70 - 7th International Professional Combat Sambo Tournament
Дата проведения: 21/08/2016
Место проведения: Сочи/Россия
Язык комментариев: Русский

Fight card

1. Свыше 93 кг: Александр Даньков - Даниэлс Рикстинс (Латвия)
2. До 70 кг: Александр Белых - Брайан Хой (Голландия)
3. До 77 кг: Эльнур Агаев - Андерсон де Кейрос Диниз (Бразилия)
4. До 93 кг: Роман Копылов - Жозэ Сантос Гомез (Бразилия)
5. До 77 кг: Дмитрий Бикрев - Жозэ Диаз (США)
6. До 82 кг: Алексей Иванов - Джесси Хуарез (США)
7. До 93 кг: Михаил Рагозин - Уоллисон Карвальо (Бразилия)
8. До 72 кг: Акоп Степанян - Тиаго Меллер (Бразилия)
9. До 93 кг: Адлан Амагов - Дирли Броенштруп (Бразилия)
10. Свыше 93 кг: Евгений Ерохин - Эмануэль Ньютон (США)

Video Info

General
ID : 1 (0x1)
Complete name : D:\З А Г Р У З К И С И Н Е Т А\Plotforma S-70 - 7th International Professional Combat Sambo Tournament [21.08.2016 MPEG-TS 576i RU]-Rpunk.TS
Format : MPEG-TS
File size : 4.02 GiB
Duration : 1h 44mn
Overall bit rate mode : Variable
Overall bit rate : 5 487 Kbps
Video
ID : 256 (0x100)
Menu ID : 1 (0x1)
Format : AVC
Format/Info : Advanced Video Codec
Format profile : High@L3
Format settings, CABAC : Yes
Format settings, ReFrames : 4 frames
Codec ID : 27
Duration : 2h 34mn
Bit rate : 5 119 Kbps
Width : 720 pixels
Height : 576 pixels
Display aspect ratio : 16:9
Frame rate : 25.000 fps
Standard : PAL
Color space : YUV
Chroma subsampling : 4:2:0
Bit depth : 8 bits
Scan type : MBAFF
Scan order : Top Field First
Bits/(Pixel*Frame) : 0.494
Stream size : 5.53 GiB
Color range : Limited
Color primaries : BT.601 PAL
Transfer characteristics : BT.470 System B, BT.470 System G
Matrix coefficients : BT.601
Audio
ID : 257 (0x101)
Menu ID : 1 (0x1)
Format : MPEG Audio
Format version : Version 1
Format profile : Layer 3
Mode : Joint stereo
Mode extension : MS Stereo
Codec ID : 3
Duration : 3h 0mn
Bit rate mode : Constant
Bit rate : 96.0 Kbps
Channel(s) : 2 channels
Sampling rate : 44.1 KHz
Compression mode : Lossy
Delay relative to video : -19ms
Stream size : 124 MiB (3%)
Language : Russian
Menu
ID : 4096 (0x1000)
Menu ID : 1 (0x1)
Duration : 1h 44mn
List : 256 (0x100) (AVC) / 257 (0x101) (MPEG Audio, Russian)
Language : / Russian
Service name : Service01
Service provider : FFmpeg
Service type : digital television

Screenshots



[Профиль] [ЛС]

Romapunk ®

Пол: Мужской

Стаж: 2 года 8 месяцев

Сообщений: 602

Откуда: Вологодская область

Создавать темы 25-Авг-2016 16:06 (спустя 4 минуты)

[Цитировать]

Картинка иногда сыплется...
[Профиль] [ЛС]

zorro

Пол: Женский

Стаж: 2 года 6 месяцев

Сообщений: 1878

Откуда: アラスカ、ロシア

Создавать темы 26-Авг-2016 11:25 (спустя 19 часов)

[Цитировать]

спасибо! Рома, релиз с рекламой?
[Профиль] [ЛС]

Romapunk ®

Пол: Мужской

Стаж: 2 года 8 месяцев

Сообщений: 602

Откуда: Вологодская область

Создавать темы 27-Авг-2016 00:01 (спустя 12 часов)

[Цитировать]

8059спасибо! Рома, релиз с рекламой?
Не было вроде. Один раз,тока Газпрома))
[Профиль] [ЛС]

BoatsLaa_

Пол: Не указан

Стаж: 1 год 5 месяцев

Сообщений: 44

Создавать темы 09-Авг-2017 19:06 (спустя 11 месяцев 13 дней)

[Цитировать]

Seed please
[Профиль] [ЛС]

BTW

Пол: Женский

Стаж: 2 года 2 месяца

Сообщений: 294

Откуда: Guåhån

Создавать темы 09-Авг-2017 20:49 (спустя 1 час 43 минуты)

[Цитировать]

Амагов вернулся в бои?
[Профиль] [ЛС]
Показать сообщения:    
Ответить на тему

Текущее время: 24-Авг 08:01

Часовой пояс: UTC + 1



Вы не можете начинать темы
Вы не можете отвечать на сообщения
Вы не можете редактировать свои сообщения
Вы не можете удалять свои сообщения
Вы не можете голосовать в опросах
Вы не можете прикреплять файлы к сообщениям
Вы не можете скачивать файлы