UFC 184: Rousey vs. Zingano (Full Event) [28.02.2015, MMA, WEB-DL|HDTV 720p, ENG]

Ответить на тему
 
Автор Сообщение

plarin ®

Пол: Мужской

Стаж: 2 года 7 месяцев

Сообщений: 619

Откуда: Мадрид

Создавать темы 01-Мар-2015 09:21

[Цитировать]

UFC 184: Rousey vs. Zingano (Full Event)- Год выпуска: 28.02.2015
Вид спорта: MMA
Продолжительность: 5:08:59
Язык комментариев: Английский-Описание: Все бои турнира "UFC 184: Rousey vs. Zingano", прошедшего 28 февраля 2015 года в "Staples Center", Лос-Анджелес, Калифорния, США.-Автор рипа/записи: ViLLAiNS | KILLERS | KYR-Состав:
1. UFC 184: Early Prelims (0:59:49)
2. UFC 184: Preliminary Card (1:27:45)
2. UFC 184: Main Card (2:41:14)-Качество: WEB-DL|HDTV 720p
Формат: MP4 | MKV
Видео кодек: H264
Аудио кодек: AAC | AC3-

Технические характеристики и скриншоты

Early Prelims (WEB-DL 720p)
Видео: 1280x720 (16:9), 29,970 fps, H264, ~4300 kbps avg, ~0.156 bit/pixel
Аудио: 44.1 kHz, AAC, 2/0 (L,R), ~128.00 kbps avg- -Preliminary Card (HDTV 720p)
Видео: 1280x720 (16:9), 59,940 fps, H264, ~5000 kbps avg, ~0.090 bit/pixel
Аудио: 48 kHz, AC3 Dolby Digital, 3/2 (L,C,R,l,r) + LFE ch, ~384.00 kbps avg- -Main Card (HDTV 720p)
Видео: 1280x720 (16:9), 29,970 fps, H264, ~3700 kbps avg, ~0.134 bit/pixel
Аудио: 48 kHz, AC3 Dolby Digital, 2/0 (L,R) ch, ~384.00 kbps avg-

MediaInfo

UFC.184.Rousey.vs.Zingano.Early.Prelims.720p.WEB.DL.x264-ViLLAiNS.mp4

General
Complete name : E:\uTorrent.Temp\Temp\UFC 184. Rousey vs. Zingano (Full Event) [HD 720p, ENG]\UFC.184.Rousey.vs.Zingano.Early.Prelims.720p.WEB.DL.x264-ViLLAiNS.mp4
Format : MPEG-4
Format profile : Base Media
Codec ID : isom
File size : 1.86 GiB
Duration : 59mn 59s
Overall bit rate : 4 433 Kbps
Writing application : Lavf56.18.100
Video
ID : 1
Format : AVC
Format/Info : Advanced Video Codec
Format profile : Main@L4.0
Format settings, CABAC : Yes
Format settings, ReFrames : 3 frames
Codec ID : avc1
Codec ID/Info : Advanced Video Coding
Duration : 59mn 59s
Bit rate : 4 296 Kbps
Width : 1 280 pixels
Height : 720 pixels
Display aspect ratio : 16:9
Frame rate mode : Variable
Frame rate : 29.970 fps
Minimum frame rate : 14.985 fps
Maximum frame rate : 90 000.000 fps
Color space : YUV
Chroma subsampling : 4:2:0
Bit depth : 8 bits
Scan type : Progressive
Bits/(Pixel*Frame) : 0.156
Stream size : 1.80 GiB (97%)
Audio
ID : 2
Format : AAC
Format/Info : Advanced Audio Codec
Format profile : LC
Codec ID : 40
Duration : 59mn 59s
Bit rate mode : Constant
Bit rate : 128 Kbps
Channel(s) : 2 channels
Channel positions : Front: L R
Sampling rate : 44.1 KHz
Compression mode : Lossy
Stream size : 55.0 MiB (3%)

UFC.184.Preliminary.Fights.720p.HDTV.x264-KILLERS.mkv

General
Unique ID : 58292162852825689365463236301785216505 (0x2BDAA985AF9932EE04A8926C9E2D35F9)
Complete name : E:\uTorrent.Temp\Temp\UFC 184. Rousey vs. Zingano (Full Event) [HD 720p, ENG]\UFC.184.Preliminary.Fights.720p.HDTV.x264-KILLERS.mkv
Format : Matroska
Format version : Version 4 / Version 2
File size : 3.34 GiB
Duration : 1h 27mn
Overall bit rate : 5 449 Kbps
Encoded date : UTC 2015-03-01 03:46:25
Writing application : mkvmerge v7.0.0 ('Where We Going') 64bit built on Jun 22 2014 08:19:39
Writing library : libebml v1.3.0 + libmatroska v1.4.1
Video
ID : 1
Format : AVC
Format/Info : Advanced Video Codec
Format profile : High@L4.1
Format settings, CABAC : Yes
Format settings, ReFrames : 5 frames
Codec ID : V_MPEG4/ISO/AVC
Duration : 1h 27mn
Bit rate : 4 957 Kbps
Width : 1 280 pixels
Height : 720 pixels
Display aspect ratio : 16:9
Frame rate mode : Constant
Frame rate : 59.880 fps
Original frame rate : 59.940 fps
Color space : YUV
Chroma subsampling : 4:2:0
Bit depth : 8 bits
Scan type : Progressive
Bits/(Pixel*Frame) : 0.090
Stream size : 3.04 GiB (91%)
Writing library : x264 core 144 r2525 40bb568
Encoding settings : cabac=1 / ref=5 / deblock=1:0:0 / analyse=0x3:0x113 / me=umh / subme=8 / psy=1 / psy_rd=1.00:0.00 / mixed_ref=1 / me_range=16 / chroma_me=1 / trellis=1 / 8x8dct=1 / cqm=0 / deadzone=21,11 / fast_pskip=1 / chroma_qp_offset=-2 / threads=24 / lookahead_threads=4 / sliced_threads=0 / nr=0 / decimate=1 / interlaced=0 / bluray_compat=0 / constrained_intra=0 / bframes=3 / b_pyramid=2 / b_adapt=2 / b_bias=0 / direct=3 / weightb=1 / open_gop=0 / weightp=2 / keyint=250 / keyint_min=25 / scenecut=40 / intra_refresh=0 / rc_lookahead=50 / rc=crf / mbtree=1 / crf=23.0 / qcomp=0.60 / qpmin=0 / qpmax=69 / qpstep=4 / ip_ratio=1.40 / aq=1:1.00
Language : English
Default : Yes
Forced : No
Matrix coefficients : BT.709
Color range : Limited
Audio
ID : 2
Format : AC-3
Format/Info : Audio Coding 3
Mode extension : CM (complete main)
Format settings, Endianness : Big
Codec ID : A_AC3
Duration : 1h 27mn
Bit rate mode : Constant
Bit rate : 384 Kbps
Channel(s) : 6 channels
Channel positions : Front: L C R, Side: L R, LFE
Sampling rate : 48.0 KHz
Bit depth : 16 bits
Compression mode : Lossy
Stream size : 241 MiB (7%)
Default : Yes
Forced : No

UFC.184.PPV.720p.HDTV.x264-KYR.mkv

General
Unique ID : 174982937575216400617211075514503219455 (0x83A47CE88A83B4956186D52760C348FF)
Complete name : E:\uTorrent.Temp\Temp\UFC 184. Rousey vs. Zingano (Full Event) [SD 400p, ENG]\UFC 184. Rousey vs. Zingano (Full Event) [HD 720p, ENG]\UFC.184.PPV.720p.HDTV.x264-KYR.mkv
Format : Matroska
Format version : Version 4 / Version 2
File size : 4.71 GiB
Duration : 2h 41mn
Overall bit rate : 4 181 Kbps
Encoded date : UTC 2015-03-01 07:54:45
Writing application : mkvmerge v6.7.0 ('Back to the Ground') 64bit built on Jan 8 2014 14:31:51
Writing library : libebml v1.3.0 + libmatroska v1.4.1
Video
ID : 1
Format : AVC
Format/Info : Advanced Video Codec
Format profile : High@L4.1
Format settings, CABAC : Yes
Format settings, ReFrames : 5 frames
Codec ID : V_MPEG4/ISO/AVC
Duration : 2h 41mn
Bit rate : 3 713 Kbps
Width : 1 280 pixels
Height : 720 pixels
Display aspect ratio : 16:9
Frame rate mode : Constant
Frame rate : 29.970 fps
Color space : YUV
Chroma subsampling : 4:2:0
Bit depth : 8 bits
Scan type : Progressive
Bits/(Pixel*Frame) : 0.134
Stream size : 4.18 GiB (89%)
Writing library : x264 core 144 r2525 40bb568
Encoding settings : cabac=1 / ref=5 / deblock=1:3:3 / analyse=0x3:0x113 / me=umh / subme=8 / psy=1 / psy_rd=1.00:0.00 / mixed_ref=1 / me_range=16 / chroma_me=1 / trellis=1 / 8x8dct=1 / cqm=0 / deadzone=21,11 / fast_pskip=1 / chroma_qp_offset=-2 / threads=18 / lookahead_threads=4 / sliced_threads=0 / nr=0 / decimate=1 / interlaced=0 / bluray_compat=0 / constrained_intra=0 / bframes=5 / b_pyramid=2 / b_adapt=2 / b_bias=0 / direct=3 / weightb=1 / open_gop=0 / weightp=2 / keyint=250 / keyint_min=25 / scenecut=40 / intra_refresh=0 / rc_lookahead=50 / rc=crf / mbtree=1 / crf=23.0 / qcomp=0.60 / qpmin=0 / qpmax=69 / qpstep=4 / ip_ratio=1.40 / aq=1:1.00
Default : No
Forced : No
Audio
ID : 2
Format : AC-3
Format/Info : Audio Coding 3
Mode extension : CM (complete main)
Format settings, Endianness : Big
Codec ID : A_AC3
Duration : 2h 41mn
Bit rate mode : Constant
Bit rate : 384 Kbps
Channel(s) : 2 channels
Channel positions : Front: L R
Sampling rate : 48.0 KHz
Bit depth : 16 bits
Compression mode : Lossy
Delay relative to video : -67ms
Stream size : 443 MiB (9%)
Default : Yes
Forced : No

Кард

Early Prelims [UFC Fight Pass]:
[Lightweight] James Krause vs. Valmir Lazaro
[Featherweight] Masio Fullen vs. Alexander Torres-Preliminary Card [Fox Sports 1]:
[Middleweight] Mark Munoz vs. Roan Carneiro
[Bantamweight] Roman Salazar vs. Norifumi Yamamoto
[Welterweight] Dhiego Lima vs. Tim Means
[Heavyweight] Derrick Lewis vs. Ruan Potts-Main Card [PPV]:
[Women's Bantamweight] Ronda Rousey (c) vs. Cat Zingano * For the UFC Women's Bantamweight Championship
[Women's Bantamweight] Raquel Pennington vs. Holly Holm
[Welterweight] Jake Ellenberger vs. Josh Koscheck
[Welterweight] Alan Jouban vs. Richard Walsh
[Lightweight] Tony Ferguson vs. Gleison Tibau
[Профиль] [ЛС]
Показать сообщения:    
Ответить на тему

Текущее время: 26-Июл 19:40

Часовой пояс: UTC + 1



Вы не можете начинать темы
Вы не можете отвечать на сообщения
Вы не можете редактировать свои сообщения
Вы не можете удалять свои сообщения
Вы не можете голосовать в опросах
Вы не можете прикреплять файлы к сообщениям
Вы не можете скачивать файлы