UFC 184: Rousey vs. Zingano (Full Event) [28.02.2015, MMA, WEB-DL 480p | HDTV 404p | WEBRip 540p, ENG]

Ответить на тему
 
Автор Сообщение

plarin ®

Пол: Мужской

Стаж: 2 года 7 месяцев

Сообщений: 619

Откуда: Мадрид

Создавать темы 01-Мар-2015 08:29

[Цитировать]

UFC 184: Rousey vs. Zingano (Full Event)- Год выпуска: 28.02.2015
Вид спорта: MMA
Продолжительность: 4:38:12
Язык комментариев: Английский-Описание: Все бои турнира "UFC 184: Rousey vs. Zingano", прошедшего 28 февраля 2015 года в "Staples Center", Лос-Анджелес, Калифорния, США.-Автор рипа/записи: ViLLAiNS | KILLERS | Ben-Состав:
1. UFC 184: Early Prelims (0:59:49)
2. UFC 184: Preliminary Card (1:27:45)
2. UFC 184: Main Card (2:10:37)-Качество: WEB-DL 480p | HDTV 404p | WEBRip 540p
Формат: MP4
Видео кодек: H264
Аудио кодек: AAC-

Технические характеристики и скриншоты

Early Prelims (WEB-DL 480p)
Видео: 854x480 (16:9), 29,970 fps, H264, ~1500 kbps avg, ~0.118 bit/pixel
Аудио: 44.1 kHz, AAC, 2/0 (L,R), ~128.00 kbps avg- -Preliminary Card (HDTV 404p)
Видео: 720x404 (16:9), 59,940 fps, H264, ~1300 kbps avg, ~0.076 bit/pixel
Аудио: 48 kHz, AAC, 2/0 (L,R), ~132.00 kbps avg- -Main Card (WEBRip 540p)
Видео: 960x540 (16:9), 29,970 fps, H264, ~2300 kbps avg, ~0.152 bit/pixel
Аудио: 48 kHz, AAC, 2/0 (L,R), ~64.00 kbps avg-

MediaInfo

UFC.184.Rousey.vs.Zingano.Early.Prelims.WEB.DL.x264-ViLLAiNS.mp4

General
Complete name : E:\uTorrent.Temp\Temp\UFC 184. Rousey vs. Zingano (Full Event) [SD 400p, ENG]\UFC.184.Rousey.vs.Zingano.Early.Prelims.WEB.DL.x264-ViLLAiNS.mp4
Format : MPEG-4
Format profile : Base Media
Codec ID : isom
File size : 680 MiB
Duration : 59mn 49s
Overall bit rate : 1 588 Kbps
Writing application : Lavf56.18.100
Video
ID : 1
Format : AVC
Format/Info : Advanced Video Codec
Format profile : Main@L3.1
Format settings, CABAC : Yes
Format settings, ReFrames : 3 frames
Codec ID : avc1
Codec ID/Info : Advanced Video Coding
Duration : 59mn 49s
Bit rate : 1 451 Kbps
Width : 854 pixels
Height : 480 pixels
Display aspect ratio : 16:9
Frame rate mode : Variable
Frame rate : 29.970 fps
Minimum frame rate : 29.211 fps
Maximum frame rate : 30.769 fps
Color space : YUV
Chroma subsampling : 4:2:0
Bit depth : 8 bits
Scan type : Progressive
Bits/(Pixel*Frame) : 0.118
Stream size : 621 MiB (91%)
Audio
ID : 2
Format : AAC
Format/Info : Advanced Audio Codec
Format profile : LC
Codec ID : 40
Duration : 59mn 49s
Bit rate mode : Constant
Bit rate : 128 Kbps
Channel(s) : 2 channels
Channel positions : Front: L R
Sampling rate : 44.1 KHz
Compression mode : Lossy
Stream size : 54.8 MiB (8%)
Text #1
ID : 1-CC1
Format : EIA-608
Muxing mode : SCTE 128 / DTVCC Transport
Muxing mode, more info : Muxed in Video #1
Duration : 59mn 49s
Bit rate mode : Constant
Stream size : 0.00 Byte (0%)
Encoded stream size : 0.00 Byte (0%)
Text #2
ID : 1-CC2
Format : EIA-608
Muxing mode : SCTE 128 / DTVCC Transport
Muxing mode, more info : Muxed in Video #1
Duration : 59mn 49s
Bit rate mode : Constant
Stream size : 0.00 Byte (0%)
Encoded stream size : 0.00 Byte (0%)
Text #3
ID : 1-CC3
Format : EIA-608
Muxing mode : SCTE 128 / DTVCC Transport
Muxing mode, more info : Muxed in Video #1
Duration : 59mn 49s
Bit rate mode : Constant
Stream size : 0.00 Byte (0%)
Encoded stream size : 0.00 Byte (0%)
Text #4
ID : 1-CC4
Format : EIA-608
Muxing mode : SCTE 128 / DTVCC Transport
Muxing mode, more info : Muxed in Video #1
Duration : 59mn 49s
Bit rate mode : Constant
Stream size : 0.00 Byte (0%)
Encoded stream size : 0.00 Byte (0%)

UFC.184.Preliminary.Fights.HDTV.x264-KILLERS.mp4

General
Complete name : E:\uTorrent.Temp\Temp\UFC 184. Rousey vs. Zingano (Full Event) [SD 400p, ENG]\UFC.184.Preliminary.Fights.HDTV.x264-KILLERS.mp4
Format : MPEG-4
Format profile : Base Media
Codec ID : isom
File size : 924 MiB
Duration : 1h 27mn
Overall bit rate mode : Variable
Overall bit rate : 1 472 Kbps
Encoded date : UTC 2015-03-01 03:38:58
Tagged date : UTC 2015-03-01 03:38:58
Video
ID : 2
Format : AVC
Format/Info : Advanced Video Codec
Format profile : High@L3.1
Format settings, CABAC : Yes
Format settings, ReFrames : 5 frames
Codec ID : avc1
Codec ID/Info : Advanced Video Coding
Duration : 1h 27mn
Source duration : 1h 27mn
Bit rate : 1 333 Kbps
Maximum bit rate : 3 640 Kbps
Width : 720 pixels
Height : 404 pixels
Display aspect ratio : 16:9
Frame rate mode : Constant
Frame rate : 59.940 fps
Color space : YUV
Chroma subsampling : 4:2:0
Bit depth : 8 bits
Scan type : Progressive
Bits/(Pixel*Frame) : 0.076
Stream size : 836 MiB (90%)
Source stream size : 836 MiB (90%)
Writing library : x264 core 144 r2525 40bb568
Encoding settings : cabac=1 / ref=5 / deblock=1:0:0 / analyse=0x3:0x113 / me=umh / subme=8 / psy=1 / psy_rd=1.00:0.00 / mixed_ref=1 / me_range=16 / chroma_me=1 / trellis=1 / 8x8dct=1 / cqm=0 / deadzone=21,11 / fast_pskip=1 / chroma_qp_offset=-2 / threads=18 / lookahead_threads=3 / sliced_threads=0 / nr=0 / decimate=1 / interlaced=0 / bluray_compat=0 / constrained_intra=0 / bframes=3 / b_pyramid=2 / b_adapt=2 / b_bias=0 / direct=3 / weightb=1 / open_gop=0 / weightp=2 / keyint=250 / keyint_min=25 / scenecut=40 / intra_refresh=0 / rc_lookahead=50 / rc=crf / mbtree=1 / crf=24.0 / qcomp=0.60 / qpmin=0 / qpmax=69 / qpstep=4 / ip_ratio=1.40 / aq=1:1.00
Encoded date : UTC 2015-03-01 02:44:36
Tagged date : UTC 2015-03-01 03:39:02
Matrix coefficients : BT.709
Color range : Limited
Audio
ID : 1
Format : AAC
Format/Info : Advanced Audio Codec
Format profile : LC
Codec ID : 40
Duration : 1h 27mn
Bit rate mode : Variable
Bit rate : 132 Kbps
Maximum bit rate : 167 Kbps
Channel(s) : 2 channels
Channel positions : Front: L R
Sampling rate : 48.0 KHz
Compression mode : Lossy
Stream size : 83.1 MiB (9%)
Encoded date : UTC 2015-03-01 03:38:58
Tagged date : UTC 2015-03-01 03:39:02

UFC.184.Rousey.vs.Zingano.WEBRip.H264-Ben.mp4

General
Complete name : E:\uTorrent.Temp\Temp\UFC 184. Rousey vs. Zingano (Full Event) [SD 400p, ENG]\UFC.184.Rousey.vs.Zingano.WEBRip.H264-Ben.mp4
Format : MPEG-4
Format profile : Base Media
Codec ID : isom
File size : 2.22 GiB
Duration : 2h 10mn
Overall bit rate : 2 431 Kbps
Writing application : Lavf53.31.100
Video
ID : 1
Format : AVC
Format/Info : Advanced Video Codec
Format profile : Main@L4.0
Format settings, CABAC : Yes
Format settings, ReFrames : 4 frames
Codec ID : avc1
Codec ID/Info : Advanced Video Coding
Duration : 2h 10mn
Bit rate : 2 358 Kbps
Width : 960 pixels
Height : 540 pixels
Display aspect ratio : 16:9
Frame rate mode : Variable
Frame rate : 29.970 fps
Minimum frame rate : 29.970 fps
Maximum frame rate : 30.000 fps
Color space : YUV
Chroma subsampling : 4:2:0
Bit depth : 8 bits
Scan type : Progressive
Bits/(Pixel*Frame) : 0.152
Stream size : 2.15 GiB (97%)
Audio
ID : 2
Format : AAC
Format/Info : Advanced Audio Codec
Format profile : LC
Codec ID : 40
Duration : 2h 10mn
Duration_LastFrame : -21ms
Bit rate mode : Constant
Bit rate : 64.0 Kbps
Channel(s) : 2 channels
Channel positions : Front: L R
Sampling rate : 48.0 KHz
Compression mode : Lossy
Stream size : 59.8 MiB (3%)
Language : English

Кард

Early Prelims [UFC Fight Pass]:
[Lightweight] James Krause vs. Valmir Lazaro
[Featherweight] Masio Fullen vs. Alexander Torres-Preliminary Card [Fox Sports 1]:
[Middleweight] Mark Munoz vs. Roan Carneiro
[Bantamweight] Roman Salazar vs. Norifumi Yamamoto
[Welterweight] Dhiego Lima vs. Tim Means
[Heavyweight] Derrick Lewis vs. Ruan Potts-Main Card [PPV]:
[Women's Bantamweight] Ronda Rousey (c) vs. Cat Zingano * For the UFC Women's Bantamweight Championship
[Women's Bantamweight] Raquel Pennington vs. Holly Holm
[Welterweight] Jake Ellenberger vs. Josh Koscheck
[Welterweight] Alan Jouban vs. Richard Walsh
[Lightweight] Tony Ferguson vs. Gleison Tibau
[Профиль] [ЛС]
Показать сообщения:    
Ответить на тему

Текущее время: 25-Июл 09:50

Часовой пояс: UTC + 1



Вы не можете начинать темы
Вы не можете отвечать на сообщения
Вы не можете редактировать свои сообщения
Вы не можете удалять свои сообщения
Вы не можете голосовать в опросах
Вы не можете прикреплять файлы к сообщениям
Вы не можете скачивать файлы