Bellator 134: Newton vs. McGeary [The British Invasion] (Full Event) [27.02.2015, MMA, WEB-DL 432p | HDTV 400p, ENG]

Ответить на тему
 
Автор Сообщение

plarin ®

Пол: Мужской

Стаж: 2 года 8 месяцев

Сообщений: 619

Откуда: Мадрид

Создавать темы 28-Фев-2015 18:53

[Цитировать]

Bellator 134: Newton vs. McGeary [The British Invasion] (Full Event)- Год выпуска: 27.02.2015
Вид спорта: MMA
Продолжительность: 3:55:26
Язык комментариев: Английский-Описание: Все бои турнира "Bellator 134: Newton vs. McGeary [The British Invasion]", прошедшего 27 февраля 2015 года в "Mohegan Sun Arena", Анкасвилл, Монтвилл, Коннектикут, США.-Автор рипа/записи: WINNEBAGO | NWCHD-Состав:
1. Bellator 134: Preliminary Card (1:28:57)
2. Bellator 134: Main Card (2:26:28)-Качество: WEB-DL 432p | HDTV 400p
Формат: MP4
Видео кодек: H264
Аудио кодек: AAC-

Технические характеристики и скриншоты

Preliminary Card (WEB-DL 432p)
Видео: 768x432 (16:9), 29,970 fps, H264, ~1600 kbps avg, ~0.161 bit/pixel
Аудио: 48 kHz, AAC, 2/0 (L,R), ~128.00 kbps avg- -Main Card (HDTV 400p)
Видео: 704x400 (16:9), 29,970 fps, H264, ~1400 kbps avg, ~0.166 bit/pixel
Аудио: 48 kHz, AAC, 2/0 (L,R), ~192.00 kbps avg-

MediaInfo

Bellator.134.Prelims.432p.WEB-DL.x264-WINNEBAGO.mkv

General
Unique ID : 136448206837986721154734565632487901324 (0x66A6F7FF6458134EC439DCC7D96EC88C)
Complete name : E:\uTorrent.Temp\Temp\Bellator 134. Newton vs. McGeary (Full Event) [SD 400p, ENG]\Bellator.134.Prelims.432p.WEB-DL.x264-WINNEBAGO.mkv
Format : Matroska
Format version : Version 4 / Version 2
File size : 1.05 GiB
Duration : 1h 28mn
Overall bit rate : 1 688 Kbps
Encoded date : UTC 2015-02-28 02:33:19
Writing application : mkvmerge v7.5.0 ('Glass Culture') 64bit built on Jan 4 2015 17:21:29
Writing library : Lavf55.19.104
VIDEOKEYFRAME_FREQUENCY : 3
AUDIOCHANNELS : 2
AUDIODEVICE : Elemental Technologies Live
VIDEODEVICE : Elemental Technologies Live
Video
ID : 1
Format : AVC
Format/Info : Advanced Video Codec
Format profile : Baseline@L3.0
Format settings, CABAC : No
Format settings, ReFrames : 4 frames
Codec ID : V_MPEG4/ISO/AVC
Duration : 1h 28mn
Bit rate mode : Constant
Nominal bit rate : 1 604 Kbps
Width : 768 pixels
Height : 432 pixels
Display aspect ratio : 16:9
Frame rate mode : Constant
Frame rate : 29.970 fps
Standard : NTSC
Color space : YUV
Chroma subsampling : 4:2:0
Bit depth : 8 bits
Scan type : Progressive
Bits/(Pixel*Frame) : 0.161
Default : Yes
Forced : No
Color primaries : BT.709
Transfer characteristics : BT.709
Matrix coefficients : BT.709
Color range : Limited
DURATION : 01:28:57.708000000
NUMBER_OF_FRAMES : 159101
NUMBER_OF_BYTES : 1061776764
_STATISTICS_WRITING_APP : mkvmerge v7.5.0 ('Glass Culture') 64bit built on Jan 4 2015 17:21:29
_STATISTICS_WRITING_DATE_UT : 2015-02-28 02:33:19
_STATISTICS_TAGS : BPS DURATION NUMBER_OF_FRAMES NUMBER_OF_BYTES
Audio
ID : 2
Format : AAC
Format/Info : Advanced Audio Codec
Format profile : HE-AAC / LC
Codec ID : A_AAC
Duration : 1h 28mn
Channel(s) : 2 channels
Channel positions : Front: L R
Sampling rate : 48.0 KHz / 24.0 KHz
Compression mode : Lossy
Delay relative to video : 32ms
Default : Yes
Forced : No
DURATION : 01:28:57.750000000
NUMBER_OF_FRAMES : 124420
NUMBER_OF_BYTES : 62863182
_STATISTICS_WRITING_APP : mkvmerge v7.5.0 ('Glass Culture') 64bit built on Jan 4 2015 17:21:29
_STATISTICS_WRITING_DATE_UT : 2015-02-28 02:33:19
_STATISTICS_TAGS : BPS DURATION NUMBER_OF_FRAMES NUMBER_OF_BYTES

Bellator.134.Newton.vs.McGeary.2015.02.27.HDTV.x264-NWCHD.mp4

General
Complete name : E:\uTorrent.Temp\Temp\Bellator 134. Newton vs. McGeary (Full Event) [SD 400p, ENG]\Bellator.134.Newton.vs.McGeary.2015.02.27.HDTV.x264-NWCHD.mp4
Format : MPEG-4
Format profile : Base Media
Codec ID : isom
File size : 1.64 GiB
Duration : 2h 26mn
Overall bit rate : 1 600 Kbps
Writing application : Lavf56.15.102
Video
ID : 1
Format : AVC
Format/Info : Advanced Video Codec
Format profile : High@L3.0
Format settings, CABAC : Yes
Format settings, ReFrames : 4 frames
Codec ID : avc1
Codec ID/Info : Advanced Video Coding
Duration : 2h 26mn
Bit rate : 1 400 Kbps
Width : 704 pixels
Height : 400 pixels
Display aspect ratio : 16:9
Frame rate mode : Constant
Frame rate : 29.970 fps
Color space : YUV
Chroma subsampling : 4:2:0
Bit depth : 8 bits
Scan type : Progressive
Bits/(Pixel*Frame) : 0.166
Stream size : 1.43 GiB (87%)
Writing library : x264 core 142 r2479 dd79a61
Encoding settings : cabac=1 / ref=3 / deblock=1:0:0 / analyse=0x3:0x113 / me=hex / subme=7 / psy=1 / psy_rd=1.00:0.00 / mixed_ref=1 / me_range=16 / chroma_me=1 / trellis=1 / 8x8dct=1 / cqm=0 / deadzone=21,11 / fast_pskip=1 / chroma_qp_offset=-2 / threads=6 / lookahead_threads=1 / sliced_threads=0 / nr=0 / decimate=1 / interlaced=0 / bluray_compat=0 / constrained_intra=0 / bframes=3 / b_pyramid=2 / b_adapt=1 / b_bias=0 / direct=1 / weightb=1 / open_gop=0 / weightp=2 / keyint=250 / keyint_min=25 / scenecut=40 / intra_refresh=0 / rc_lookahead=40 / rc=abr / mbtree=1 / bitrate=1400 / ratetol=1.0 / qcomp=0.60 / qpmin=0 / qpmax=69 / qpstep=4 / ip_ratio=1.40 / aq=1:1.00
Audio
ID : 2
Format : AAC
Format/Info : Advanced Audio Codec
Format profile : LC
Codec ID : 40
Duration : 2h 26mn
Bit rate mode : Constant
Bit rate : 192 Kbps
Channel(s) : 2 channels
Channel positions : Front: L R
Sampling rate : 48.0 KHz
Compression mode : Lossy
Stream size : 202 MiB (12%)

Кард

Preliminary Card:
[Lightweight] Michael Mangan vs. Dean Hanco
[Featherweight] Matt Bessette vs. Josh LaBerge
[Heavyweight] Raphael Butler vs. Josh Diekmann
[Middleweight] Tamdan McCrory vs. Jason Butcher
[Welterweight] Bobby Flynn vs. Neiman Gracie
[Bantamweight] Marvin Maldonado vs. Blair Tugman-Preliminary Card:
[Light Heavyweight] Emanuel Newton (c) vs. Liam McGeary * For the Bellator Light Heavyweight Championship
[Welterweight] Paul Daley vs. Andre Santos
[Heavyweight] Cheick Kongo vs. Muhammed Lawal
[Light Heavyweight] Rameau Thierry Sokoudjou vs. Linton Vassell
[Welterweight] Brennan Ward vs. Curtis Millender
[Профиль] [ЛС]

Romapunk

Пол: Мужской

Стаж: 2 года 8 месяцев

Сообщений: 600

Откуда: Вологодская область

Создавать темы 02-Мар-2015 23:10 (спустя 2 дня 4 часа)

[Цитировать]

plarin,
У тебя в описании карда 2 раза написано Preliminary)
[Профиль] [ЛС]
Показать сообщения:    
Ответить на тему

Текущее время: 24-Авг 04:09

Часовой пояс: UTC + 1



Вы не можете начинать темы
Вы не можете отвечать на сообщения
Вы не можете редактировать свои сообщения
Вы не можете удалять свои сообщения
Вы не можете голосовать в опросах
Вы не можете прикреплять файлы к сообщениям
Вы не можете скачивать файлы