Invicta FC 11: Cyborg vs. Tweet (Full Event) [27.02.2015, MMA, WEB-DL 480p, ENG]

Ответить на тему
 
Автор Сообщение

plarin ®

Пол: Мужской

Стаж: 2 года 9 месяцев

Сообщений: 619

Откуда: Мадрид

Создавать темы 28-Фев-2015 17:16

[Цитировать]

Invicta FC 11: Cyborg vs. Tweet (Full Event)- Год выпуска: 27.02.2015
Вид спорта: MMA
Продолжительность: 3:05:14
Язык комментариев: Английский-Описание: Все бои турнира "Invicta FC 11: Cyborg vs. Tweet", прошедшего 27 февраля 2015 года в "Shrine Auditorium", Лос-Анджелес, Калифорния, США.-Автор рипа/записи: ViLLAiNS-Состав:
1. Invicta FC 11: Preliminary Card (1:32:22)
1. Invicta FC 11: Main Card (1:32:51)-Качество: WEB-DL 480p
Формат: MP4
Видео: 854x480 (16:9), 29,970 fps, H264, ~1600 kbps avg, ~0.073 bit/pixel
Аудио: 44.1 kHz, AAC, 2/0 (L,R), ~128.00 kbps avg-

Скриншоты

MediaInfo

Invicta.FC.11.Cyborg.vs.Tweet.Prelims.WEB.DL.x264-ViLLAiNS.mp4

General
Complete name : E:\uTorrent.Temp\Done\Invicta FC 11. Cyborg vs. Tweet (Full Event) [SD 400p, ENG]\Invicta.FC.11.Cyborg.vs.Tweet.Prelims.WEB.DL.x264-ViLLAiNS.mp4
Format : MPEG-4
Format profile : Base Media
Codec ID : isom
File size : 1.01 GiB
Duration : 1h 32mn
Overall bit rate : 1 570 Kbps
Writing application : Lavf56.18.100
Video
ID : 1
Format : AVC
Format/Info : Advanced Video Codec
Format profile : Main@L3.1
Format settings, CABAC : Yes
Format settings, ReFrames : 3 frames
Codec ID : avc1
Codec ID/Info : Advanced Video Coding
Duration : 1h 32mn
Bit rate : 1 432 Kbps
Width : 852 pixels
Height : 480 pixels
Display aspect ratio : 16:9
Frame rate mode : Constant
Frame rate : 29.970 fps
Color space : YUV
Chroma subsampling : 4:2:0
Bit depth : 8 bits
Scan type : Progressive
Bits/(Pixel*Frame) : 0.117
Stream size : 946 MiB (91%)
Audio
ID : 2
Format : AAC
Format/Info : Advanced Audio Codec
Format profile : LC
Codec ID : 40
Duration : 1h 32mn
Bit rate mode : Constant
Bit rate : 128 Kbps
Channel(s) : 2 channels
Channel positions : Front: L R
Sampling rate : 44.1 KHz
Compression mode : Lossy
Stream size : 84.7 MiB (8%)
Text
ID : 1-CC1
Format : EIA-608
Muxing mode : SCTE 128 / DTVCC Transport
Muxing mode, more info : Muxed in Video #1
Duration : 1h 32mn
Bit rate mode : Constant
Stream size : 0.00 Byte (0%)
Encoded stream size : 0.00 Byte (0%)

Invicta.FC.11.Cyborg.vs.Tweet.WEB.DL.x264-ViLLAiNS.mp4

General
Complete name : E:\uTorrent.Temp\Done\Invicta FC 11. Cyborg vs. Tweet (Full Event) [SD 400p, ENG]\Invicta.FC.11.Cyborg.vs.Tweet.WEB.DL.x264-ViLLAiNS.mp4
Format : MPEG-4
Format profile : Base Media
Codec ID : isom
File size : 1.03 GiB
Duration : 1h 32mn
Overall bit rate : 1 583 Kbps
Writing application : Lavf56.18.100
Video
ID : 1
Format : AVC
Format/Info : Advanced Video Codec
Format profile : Main@L3.1
Format settings, CABAC : Yes
Format settings, ReFrames : 3 frames
Codec ID : avc1
Codec ID/Info : Advanced Video Coding
Duration : 1h 32mn
Bit rate : 1 446 Kbps
Width : 852 pixels
Height : 480 pixels
Display aspect ratio : 16:9
Frame rate mode : Constant
Frame rate : 29.970 fps
Color space : YUV
Chroma subsampling : 4:2:0
Bit depth : 8 bits
Scan type : Progressive
Bits/(Pixel*Frame) : 0.118
Stream size : 960 MiB (91%)
Audio
ID : 2
Format : AAC
Format/Info : Advanced Audio Codec
Format profile : LC
Codec ID : 40
Duration : 1h 32mn
Bit rate mode : Constant
Bit rate : 128 Kbps
Channel(s) : 2 channels
Channel positions : Front: L R
Sampling rate : 44.1 KHz
Compression mode : Lossy
Stream size : 85.2 MiB (8%)

Кард

Preliminary Card:
[Strawweight] J.J. Aldrich vs. Jamie Moyle
[Strawweight] Amy Montenegro vs. Brianna Van Buren
[Bantamweight] Rachael Cummins vs. Christine Stanley
[Flyweight] Aspen Ladd vs. Ana Carolina Vidal-Main Card:
[Featherweight] Cristiane Justino vs. Charmaine Tweet * For Invicta FC Featherweight Championship
[Strawweight] Alexa Grasso vs. Mizuki Inoue
[Strawweight] Norma Rueda Center vs. DeAnna Bennett
[Bantamweight] Irene Aldana vs. Colleen Schneider
[Профиль] [ЛС]
Показать сообщения:    
Ответить на тему

Текущее время: 21-Окт 00:31

Часовой пояс: UTC + 1



Вы не можете начинать темы
Вы не можете отвечать на сообщения
Вы не можете редактировать свои сообщения
Вы не можете удалять свои сообщения
Вы не можете голосовать в опросах
Вы не можете прикреплять файлы к сообщениям
Вы не можете скачивать файлы