ONE Championship 45 Heroes of the World (Full Event) [ 13.08.2016 720p INT ] WEB-DL-Rpunk

Ответить на тему
 
Автор Сообщение

Romapunk ®

Пол: Мужской

Стаж: 2 года 6 месяцев

Сообщений: 527

Откуда: Вологодская область

Создавать темы 13-Авг-2016 19:58

[Цитировать]


Описание: ONE Championship 45 Heroes of the World (Full Event)
Дата проведения: 13/08/2016
Место проведения: Cotai Arena at The Venetian Macao | Macau, China
Язык комментариев: Интершум

Fight card

Tilek Batyrov vs. Adriano Moraes For interim flyweight title
Eduard Folayang vs. Adrian Pang
Honorio Banario vs. Eddie Ng
Christian Lee vs. Martin Nguyen
Alexandre Machado vs. Alain Ngalani
Ma Jia Wen vs. Jimmy Yabo
Ma Hao Bin vs. Chan Rothana
Kritsada Kongsrichai vs. Joshua Pacio

Video Info

General
Complete name : ONE Championship 45 Heroes of the World (Full Event) [ 13.08.2016 720p INT ] WEB-DL-Rpunk.mp4
Format : MPEG-4
Format profile : Base Media
Codec ID : isom
File size : 3.36 GiB
Duration : 4h 8mn
Overall bit rate mode : Variable
Overall bit rate : 1 931 Kbps
Writing application : Lavf56.15.102
Video
ID : 1
Format : AVC
Format/Info : Advanced Video Codec
Format profile : High@L3.1
Format settings, CABAC : Yes
Format settings, ReFrames : 2 frames
Codec ID : avc1
Codec ID/Info : Advanced Video Coding
Duration : 4h 8mn
Bit rate mode : Variable
Bit rate : 1 794 Kbps
Maximum bit rate : 3 000 Kbps
Width : 1 280 pixels
Height : 720 pixels
Display aspect ratio : 16:9
Frame rate mode : Constant
Frame rate : 25.000 fps
Color space : YUV
Chroma subsampling : 4:2:0
Bit depth : 8 bits
Scan type : Progressive
Bits/(Pixel*Frame) : 0.078
Stream size : 3.12 GiB (93%)
Audio
ID : 2
Format : AAC
Format/Info : Advanced Audio Codec
Format profile : LC
Codec ID : 40
Duration : 4h 8mn
Bit rate mode : Variable
Bit rate : 125 Kbps
Maximum bit rate : 128 Kbps
Channel(s) : 2 channels
Channel positions : Front: L R
Sampling rate : 48.0 KHz
Compression mode : Lossy
Stream size : 223 MiB (6%)

Screenshots



[Профиль] [ЛС]

bulagur

Пол: Мужской

Стаж: 1 год 1 месяц

Сообщений: 9

Создавать темы 27-Апр-2017 06:58 (спустя 8 месяцев 13 дней)

[Цитировать]

Скачано 95,2 % а дальше движухи нет.
[Профиль] [ЛС]

zorro

Пол: Женский

Стаж: 2 года 4 месяца

Сообщений: 1760

Откуда: アラスカ、ロシア

Создавать темы 27-Апр-2017 10:15 (спустя 3 часа)

[Цитировать]

спасибо
[Профиль] [ЛС]
Показать сообщения:    
Ответить на тему

Текущее время: 26-Июн 11:32

Часовой пояс: UTC + 1



Вы не можете начинать темы
Вы не можете отвечать на сообщения
Вы не можете редактировать свои сообщения
Вы не можете удалять свои сообщения
Вы не можете голосовать в опросах
Вы не можете прикреплять файлы к сообщениям
Вы не можете скачивать файлы