UFC Fight Night 61: Bigfoot vs. Mir (Full Event) [22.02.2015, MMA, WEB-DL|HDTV 720p, ENG] :: Fight Tracker Russia

UFC Fight Night 61: Bigfoot vs. Mir (Full Event) [22.02.2015, MMA, WEB-DL|HDTV 720p, ENG]

Ответить на тему
 
Автор Сообщение

plarin ®

Пол: Мужской

Стаж: 2 года 4 месяца

Сообщений: 602

Откуда: Мадрид

Создавать темы 23-Фев-2015 09:50

[Цитировать]

UFC Fight Night 61: Bigfoot vs. Mir (Full Event)- Год выпуска: 22.02.2015
Вид спорта: MMA
Продолжительность: 5:00:46
Язык комментариев: Английский-Описание: Все бои турнира "UFC Fight Night 61: Bigfoot vs. Mir", прошедшего 22 февраля 2015 года в "Gigantinho Gymnasium", Порту-Алегри, Риу-Гранди-ду-Сул, Бразилия.-Автор рипа/записи: ViLLAiNS | Sir.Paul-Состав:
1. UFC Fight Night 61: Early Prelims (0:29:50)
2. UFC Fight Night 61: Preliminary Card (2:00:00)
3. UFC Fight Night 61: Main Card (2:30:56)-Качество: WEB-DL|HDTV 720p
Формат: MP4 | MKV
Видео кодек: H264
Аудио кодек: AAC-

Технические характеристики и скриншоты

Early Prelims (WEB-DL 720p)
Видео: 1280x720 (16:9), 29,970 fps, H264, ~4300 kbps avg, ~0.155 bit/pixel
Аудио: 48 kHz, AAC, 2/0 (L,R), ~128.00 kbps avg- -Preliminary Card (WEB-DL 720p)
Видео: 1280x720 (16:9), 29,970 fps, H264, ~4300 kbps avg, ~0.155 bit/pixel
Аудио: 48 kHz, AAC, 2/0 (L,R), ~128.00 kbps avg- -Main Card (HDTV 720p)
Видео: 1280x720 (16:9), 50,000 fps, H264, ~4500 kbps avg, ~0.098 bit/pixel
Аудио: 48 kHz, AAC, 2/0 (L,R) ch, ~160.00 kbps avg-

MediaInfo

UFC.Fight.Night.61.Bigfoot.vs.Mir.Early.Prelims.720p.WEB.DL.x264-ViLLAiNS.mp4

General
Complete name : E:\uTorrent.Temp\Temp\UFC Fight Night 61. Bigfoot vs. Mir (Full Event) [HD 720p, ENG]\UFC.Fight.Night.61.Bigfoot.vs.Mir.Early.Prelims.720p.WEB.DL.x264-ViLLAiNS.mp4
Format : MPEG-4
Format profile : Base Media
Codec ID : isom
File size : 951 MiB
Duration : 29mn 59s
Overall bit rate : 4 432 Kbps
Writing application : Lavf56.18.100
Video
ID : 1
Format : AVC
Format/Info : Advanced Video Codec
Format profile : Main@L4.0
Format settings, CABAC : Yes
Format settings, ReFrames : 3 frames
Codec ID : avc1
Codec ID/Info : Advanced Video Coding
Duration : 29mn 59s
Bit rate : 4 296 Kbps
Width : 1 280 pixels
Height : 720 pixels
Display aspect ratio : 16:9
Frame rate mode : Variable
Frame rate : 29.970 fps
Minimum frame rate : 14.985 fps
Maximum frame rate : 428.571 fps
Color space : YUV
Chroma subsampling : 4:2:0
Bit depth : 8 bits
Scan type : Progressive
Bits/(Pixel*Frame) : 0.156
Stream size : 921 MiB (97%)
Audio
ID : 2
Format : AAC
Format/Info : Advanced Audio Codec
Format profile : LC
Codec ID : 40
Duration : 29mn 59s
Bit rate mode : Constant
Bit rate : 129 Kbps
Channel(s) : 2 channels
Channel positions : Front: L R
Sampling rate : 44.1 KHz
Compression mode : Lossy
Stream size : 27.6 MiB (3%)

UFC.Fight.Night.61.Bigfoot.vs.Mir.Prelims.720p.WEB.DL.x264-ViLLAiNS.mp4

General
Complete name : E:\uTorrent.Temp\Temp\UFC Fight Night 61. Bigfoot vs. Mir (Full Event) [HD 720p, ENG]\UFC.Fight.Night.61.Bigfoot.vs.Mir.Prelims.720p.WEB.DL.x264-ViLLAiNS.mp4
Format : MPEG-4
Format profile : Base Media
Codec ID : isom
File size : 3.73 GiB
Duration : 2h 0mn
Overall bit rate : 4 454 Kbps
Writing application : Lavf56.18.100
Video
ID : 1
Format : AVC
Format/Info : Advanced Video Codec
Format profile : Main@L4.0
Format settings, CABAC : Yes
Format settings, ReFrames : 3 frames
Codec ID : avc1
Codec ID/Info : Advanced Video Coding
Duration : 1h 59mn
Bit rate : 4 318 Kbps
Width : 1 280 pixels
Height : 720 pixels
Display aspect ratio : 16:9
Frame rate mode : Variable
Frame rate : 29.933 fps
Original frame rate : 29.970 fps
Minimum frame rate : 0.966 fps
Maximum frame rate : 90 000.000 fps
Color space : YUV
Chroma subsampling : 4:2:0
Bit depth : 8 bits
Scan type : Progressive
Bits/(Pixel*Frame) : 0.157
Stream size : 3.62 GiB (97%)
Audio
ID : 2
Format : AAC
Format/Info : Advanced Audio Codec
Format profile : LC
Codec ID : 40
Duration : 2h 0mn
Bit rate mode : Constant
Bit rate : 128 Kbps
Channel(s) : 2 channels
Channel positions : Front: L R
Sampling rate : 44.1 KHz
Compression mode : Lossy
Stream size : 110 MiB (3%)

UFC.Fight.Night.61.Bigfoot.vs.Mir.Feb.22nd.2015.HDTV.720p-Sir.Paul.mkv

General
Unique ID : 135999751698950024954017324200609032816 (0x66509973C2D525DA6AE9E7DB36F9AA70)
Complete name : E:\uTorrent.Temp\Temp\UFC Fight Night 61. Bigfoot vs. Mir (Full Event) [HD 720p, ENG]\UFC.Fight.Night.61.Bigfoot.vs.Mir.Feb.22nd.2015.HDTV.720p-Sir.Paul.mkv
Format : Matroska
Format version : Version 2
File size : 5.15 GiB
Duration : 2h 30mn
Overall bit rate : 4 885 Kbps
Writing application : HandBrake 0.10.0 2014112200
Writing library : Lavf55.12.0
Video
ID : 1
Format : AVC
Format/Info : Advanced Video Codec
Format profile : Main@L4.0
Format settings, CABAC : Yes
Format settings, ReFrames : 4 frames
Codec ID : V_MPEG4/ISO/AVC
Duration : 2h 30mn
Nominal bit rate : 4 500 Kbps
Width : 1 280 pixels
Height : 720 pixels
Display aspect ratio : 16:9
Frame rate mode : Constant
Frame rate : 50.000 fps
Color space : YUV
Chroma subsampling : 4:2:0
Bit depth : 8 bits
Scan type : Progressive
Bits/(Pixel*Frame) : 0.098
Writing library : x264 core 142 r2479 dd79a61
Encoding settings : cabac=1 / ref=1 / deblock=1:0:0 / analyse=0x1:0x111 / me=hex / subme=2 / psy=1 / psy_rd=1.00:0.00 / mixed_ref=0 / me_range=16 / chroma_me=1 / trellis=0 / 8x8dct=0 / cqm=0 / deadzone=21,11 / fast_pskip=1 / chroma_qp_offset=0 / threads=12 / lookahead_threads=4 / sliced_threads=0 / nr=0 / decimate=1 / interlaced=0 / bluray_compat=0 / constrained_intra=0 / bframes=3 / b_pyramid=2 / b_adapt=1 / b_bias=0 / direct=1 / weightb=1 / open_gop=0 / weightp=1 / keyint=500 / keyint_min=50 / scenecut=40 / intra_refresh=0 / rc_lookahead=10 / rc=abr / mbtree=1 / bitrate=4500 / ratetol=1.0 / qcomp=0.60 / qpmin=0 / qpmax=69 / qpstep=4 / vbv_maxrate=20000 / vbv_bufsize=25000 / nal_hrd=none / filler=0 / ip_ratio=1.40 / aq=1:1.00
Default : Yes
Forced : No
Color primaries : BT.709
Transfer characteristics : BT.709
Matrix coefficients : BT.709
Color range : Limited
Audio
ID : 2
Format : AAC
Format/Info : Advanced Audio Codec
Format profile : LC
Codec ID : A_AAC
Duration : 2h 30mn
Channel(s) : 2 channels
Channel positions : Front: L R
Sampling rate : 48.0 KHz
Compression mode : Lossy
Title : Stereo
Language : English
Default : Yes
Forced : No

Кард

Early Prelims [UFC Fight Pass]:
-Preliminary Card [Fox Sports 1]:
-Main Card [Fox Sports 1]:


Последний раз редактировалось: plarin (2015-02-23 17:44), всего редактировалось 2 раз(а)
[Профиль] [ЛС]

plarin ®

Пол: Мужской

Стаж: 2 года 4 месяца

Сообщений: 602

Откуда: Мадрид

Создавать темы 23-Фев-2015 13:19 (спустя 3 часа)

[Цитировать]

Раздача обновлена. В связи с небольшим рассинхроном заменён MC - "UFC.Fight.Night.61.720p.HDTV.x264-KNOCKOUT.mkv" - выкинуть, а "UFC.Fight.Night.61.Bigfoot.vs.Mir.Feb.22nd.2015.HDTV.720p-Sir.Paul.mkv" скачать. Остальные файлы не менялись. Перекачайте торрент, перехешируйте существующие и докачайте недостающие файлы. Приятного просмотра.
[Профиль] [ЛС]

Tjrn

Пол: Не указан

Стаж: 2 года 2 месяца

Сообщений: 1

Создавать темы 23-Фев-2015 15:50 (спустя 2 часа 31 минута)

[Цитировать]

Еще один такой коммент о результатах и бан!!! Lotto
[Профиль] [ЛС]

zorro

Пол: Женский

Стаж: 2 года 3 месяца

Сообщений: 1646

Откуда: アラスカ、ロシア

Создавать темы 23-Фев-2015 16:02 (спустя 11 минут)

[Цитировать]

Результат боя под спойлер спрячьте
[Профиль] [ЛС]
Показать сообщения:    
Ответить на тему

Текущее время: 01-Май 05:18

Часовой пояс: UTC + 1



Вы не можете начинать темы
Вы не можете отвечать на сообщения
Вы не можете редактировать свои сообщения
Вы не можете удалять свои сообщения
Вы не можете голосовать в опросах
Вы не можете прикреплять файлы к сообщениям
Вы не можете скачивать файлы