UFC Fight Night 61: Bigfoot vs. Mir (Full Event) [22.02.2015, MMA, WEB-DL 480p | HDTV 400p, ENG] :: Fight Tracker Russia

UFC Fight Night 61: Bigfoot vs. Mir (Full Event) [22.02.2015, MMA, WEB-DL 480p | HDTV 400p, ENG]

Ответить на тему
 
Автор Сообщение

plarin ®

Пол: Мужской

Стаж: 2 года 1 месяц

Сообщений: 568

Откуда: Мадрид

Создавать темы 23-Фев-2015 09:50

[Цитировать]

UFC Fight Night 61: Bigfoot vs. Mir (Full Event)- Год выпуска: 22.02.2015
Вид спорта: MMA
Продолжительность: 5:00:46
Язык комментариев: Английский-Описание: Все бои турнира "UFC Fight Night 61: Bigfoot vs. Mir", прошедшего 22 февраля 2015 года в "Gigantinho Gymnasium", Порту-Алегри, Риу-Гранди-ду-Сул, Бразилия.-Автор рипа/записи: ViLLAiNS | Fight-BB-Состав:
1. UFC Fight Night 61: Early Prelims (0:29:50)
2. UFC Fight Night 61: Preliminary Card (1:59:59)
3. UFC Fight Night 61: Main Card (2:30:56)-Качество: WEB-DL 480p | HDTV 400p
Формат: MP4
Видео кодек: H264
Аудио кодек: AAC-

Технические характеристики и скриншоты

Early Prelims (WEB-DL 480p)
Видео: 854x480 (16:9), 29,970 fps, H264, ~1500 kbps avg, ~0.119 bit/pixel
Аудио: 48 kHz, AAC, 2/0 (L,R), ~128.00 kbps avg- -Preliminary Card (WEB-DL 480p)
Видео: 854x480 (16:9), 29,970 fps, H264, ~1500 kbps avg, ~0.119 bit/pixel
Аудио: 48 kHz, AAC, 2/0 (L,R), ~128.00 kbps avg- -Main Card (HDTV 400p)
Видео: 704x400 (16:9), 29,970 fps, H264, ~1500 kbps avg, ~0.199 bit/pixel
Аудио: 48 kHz, AAC, 2/0 (L,R), ~128.00 kbps avg-

MediaInfo

UFC.Fight.Night.61.Bigfoot.vs.Mir.Early.Prelims.WEB.DL.x264-ViLLAiNS.mp4

General
Complete name : E:\uTorrent.Temp\Temp\UFC Fight Night 61. Bigfoot vs. Mir (Full Event) [SD 480p, ENG]\UFC.Fight.Night.61.Bigfoot.vs.Mir.Early.Prelims.WEB.DL.x264-ViLLAiNS.mp4
Format : MPEG-4
Format profile : Base Media
Codec ID : isom
File size : 339 MiB
Duration : 29mn 50s
Overall bit rate : 1 587 Kbps
Writing application : Lavf56.18.100
Video
ID : 1
Format : AVC
Format/Info : Advanced Video Codec
Format profile : Main@L3.1
Format settings, CABAC : Yes
Format settings, ReFrames : 3 frames
Codec ID : avc1
Codec ID/Info : Advanced Video Coding
Duration : 29mn 50s
Bit rate : 1 450 Kbps
Width : 854 pixels
Height : 480 pixels
Display aspect ratio : 16:9
Frame rate mode : Variable
Frame rate : 29.970 fps
Minimum frame rate : 29.674 fps
Maximum frame rate : 30.272 fps
Color space : YUV
Chroma subsampling : 4:2:0
Bit depth : 8 bits
Scan type : Progressive
Bits/(Pixel*Frame) : 0.118
Stream size : 310 MiB (91%)
Audio
ID : 2
Format : AAC
Format/Info : Advanced Audio Codec
Format profile : LC
Codec ID : 40
Duration : 29mn 50s
Bit rate mode : Constant
Bit rate : 128 Kbps
Channel(s) : 2 channels
Channel positions : Front: L R
Sampling rate : 44.1 KHz
Compression mode : Lossy
Stream size : 27.4 MiB (8%)

UFC.Fight.Night.61.Bigfoot.vs.Mir.Prelims.WEB.DL.x264-ViLLAiNS.mp4

General
Complete name : E:\uTorrent.Temp\Temp\UFC Fight Night 61. Bigfoot vs. Mir (Full Event) [SD 480p, ENG]\UFC.Fight.Night.61.Bigfoot.vs.Mir.Prelims.WEB.DL.x264-ViLLAiNS.mp4
Format : MPEG-4
Format profile : Base Media
Codec ID : isom
File size : 1.33 GiB
Duration : 1h 59mn
Overall bit rate : 1 588 Kbps
Writing application : Lavf56.18.100
Video
ID : 1
Format : AVC
Format/Info : Advanced Video Codec
Format profile : Main@L3.1
Format settings, CABAC : Yes
Format settings, ReFrames : 3 frames
Codec ID : avc1
Codec ID/Info : Advanced Video Coding
Duration : 1h 59mn
Bit rate : 1 451 Kbps
Width : 854 pixels
Height : 480 pixels
Display aspect ratio : 16:9
Frame rate mode : Constant
Frame rate : 29.970 fps
Color space : YUV
Chroma subsampling : 4:2:0
Bit depth : 8 bits
Scan type : Progressive
Bits/(Pixel*Frame) : 0.118
Stream size : 1.22 GiB (91%)
Audio
ID : 2
Format : AAC
Format/Info : Advanced Audio Codec
Format profile : LC
Codec ID : 40
Duration : 1h 59mn
Bit rate mode : Constant
Bit rate : 128 Kbps
Channel(s) : 2 channels
Channel positions : Front: L R
Sampling rate : 44.1 KHz
Compression mode : Lossy
Stream size : 110 MiB (8%)

UFC.Fight.Night.61.HDTV.x264.Fight-BB.mp4

General
Complete name : E:\uTorrent.Temp\Temp\UFC Fight Night 61. Bigfoot vs. Mir (Full Event) [SD 480p, ENG]\UFC.Fight.Night.61.HDTV.x264.Fight-BB.mp4
Format : MPEG-4
Format profile : Base Media
Codec ID : isom
File size : 1.96 GiB
Duration : 3h 2mn
Overall bit rate : 1 532 Kbps
Encoded date : UTC 2015-02-23 08:10:12
Tagged date : UTC 2015-02-23 08:10:12
Writing application : Lavf56.18.101
Video
ID : 1
Format : AVC
Format/Info : Advanced Video Codec
Format profile : Main@L4.1
Format settings, CABAC : Yes
Format settings, ReFrames : 2 frames
Codec ID : avc1
Codec ID/Info : Advanced Video Coding
Duration : 3h 2mn
Bit rate : 1 400 Kbps
Width : 704 pixels
Height : 400 pixels
Display aspect ratio : 16:9
Frame rate mode : Constant
Frame rate : 25.000 fps
Standard : Component
Color space : YUV
Chroma subsampling : 4:2:0
Bit depth : 8 bits
Scan type : Progressive
Bits/(Pixel*Frame) : 0.199
Stream size : 1.79 GiB (91%)
Writing library : x264 core 144 r2525
Encoding settings : cabac=1 / ref=2 / deblock=1:0:0 / analyse=0x1:0x131 / me=dia / subme=7 / psy=1 / psy_rd=1.00:0.00 / mixed_ref=0 / me_range=16 / chroma_me=1 / trellis=1 / 8x8dct=0 / cqm=0 / deadzone=21,11 / fast_pskip=1 / chroma_qp_offset=-2 / threads=24 / lookahead_threads=3 / sliced_threads=0 / nr=0 / decimate=1 / interlaced=0 / bluray_compat=0 / constrained_intra=0 / bframes=3 / b_pyramid=0 / b_adapt=1 / b_bias=0 / direct=3 / weightb=1 / open_gop=1 / weightp=2 / keyint=250 / keyint_min=25 / scenecut=40 / intra_refresh=0 / rc_lookahead=40 / rc=abr / mbtree=1 / bitrate=1400 / ratetol=1.0 / qcomp=0.60 / qpmin=10 / qpmax=69 / qpstep=4 / vbv_maxrate=24000 / vbv_bufsize=24000 / nal_hrd=none / filler=0 / frame-packing=0 / ip_ratio=1.40 / aq=3:1.00
Encoded date : UTC 2015-02-23 08:10:12
Tagged date : UTC 2015-02-23 08:10:12
Color range : Limited
Audio
ID : 2
Format : AAC
Format/Info : Advanced Audio Codec
Format profile : LC
Codec ID : 40
Duration : 3h 2mn
Duration_LastFrame : -26ms
Bit rate mode : Constant
Bit rate : 128 Kbps
Channel(s) : 2 channels
Channel positions : Front: L R
Sampling rate : 22.05 KHz
Compression mode : Lossy
Stream size : 167 MiB (8%)
Encoded date : UTC 2015-02-23 08:10:12
Tagged date : UTC 2015-02-23 08:10:12

Кард

Early Prelims [UFC Fight Pass]:
-Preliminary Card [Fox Sports 1]:
-Main Card [Fox Sports 1]:


Последний раз редактировалось: plarin (2015-02-23 12:07), всего редактировалось 1 раз
[Профиль] [ЛС]

plarin ®

Пол: Мужской

Стаж: 2 года 1 месяц

Сообщений: 568

Откуда: Мадрид

Создавать темы 23-Фев-2015 12:00 (спустя 2 часа 10 минут)

[Цитировать]

Раздача обновлена. В связи с небольшим рассинхроном заменён MC - "UFC.Fight.Night.61.HDTV.x264.Fight-BB.mp4" выкинуть, а "UFC.Fight.Night.61.Bigfoot.vs.Mir.Feb.22nd.2015.HDTV.x264-Sir.Paul.mp4" скачать. Остальные файлы не менялись. Перекачайте торрент, перехешируйте существующие и докачайте недостающие файлы. Приятного просмотра.
З.Ы. 720п тоже обновлю, но позже.
[Профиль] [ЛС]
Показать сообщения:    
Ответить на тему

Текущее время: 23-Янв 21:54

Часовой пояс: UTC + 1



Вы не можете начинать темы
Вы не можете отвечать на сообщения
Вы не можете редактировать свои сообщения
Вы не можете удалять свои сообщения
Вы не можете голосовать в опросах
Вы не можете прикреплять файлы к сообщениям
Вы не можете скачивать файлы