Legacy FC 38: Njokuani vs. Gifford (Main Card) [13.02.2015, MMA, WEBRip 480p, ENG]

Ответить на тему
 
Автор Сообщение

plarin ®

Пол: Мужской

Стаж: 2 года 7 месяцев

Сообщений: 619

Откуда: Мадрид

Создавать темы 22-Фев-2015 08:13

[Цитировать]

Legacy FC 38: Njokuani vs. Gifford (Main Card)- Год выпуска: 13.02.2015
Вид спорта: MMA
Продолжительность: 2:14:32
Язык комментариев: Английский-Описание: Главные бои турнира "Legacy FC 38: Njokuani vs. Gifford", прошедшего 13 февраля 2015 года в "Allen Event Center", Аллен, Техас, США.-Автор рипа/записи: FightCreature-Качество: WEBRip 480p
Формат: MP4
Видео: 720x480 (3:2), 29,970 fps, H264, ~678 kbps avg, ~0.065 bit/pixel
Аудио: 44 kHz, AAC, 2/0 (L,R), ~96.00 kbps avg-

Скриншоты

MediaInfo

General
Complete name : E:\uTorrent.Temp\Temp\Legacy.FC.38.StreamRip-FightCreature.mp4
Format : MPEG-4
Format profile : Base Media
Codec ID : isom
File size : 790 MiB
Duration : 2h 14mn
Overall bit rate mode : Variable
Overall bit rate : 821 Kbps
Writing application : Lavf55.37.100
Video
ID : 1
Format : AVC
Format/Info : Advanced Video Codec
Format profile : High@L3.0
Format settings, CABAC : Yes
Format settings, ReFrames : 4 frames
Codec ID : avc1
Codec ID/Info : Advanced Video Coding
Duration : 2h 14mn
Bit rate : 678 Kbps
Width : 720 pixels
Height : 480 pixels
Display aspect ratio : 3:2
Frame rate mode : Constant
Frame rate : 29.970 fps
Standard : NTSC
Color space : YUV
Chroma subsampling : 4:2:0
Bit depth : 8 bits
Scan type : Progressive
Bits/(Pixel*Frame) : 0.065
Stream size : 652 MiB (83%)
Writing library : x264 core 142 r2409 d6b4e63
Encoding settings : cabac=1 / ref=3 / deblock=1:0:0 / analyse=0x3:0x113 / me=hex / subme=7 / psy=1 / psy_rd=1.00:0.00 / mixed_ref=1 / me_range=16 / chroma_me=1 / trellis=1 / 8x8dct=1 / cqm=0 / deadzone=21,11 / fast_pskip=1 / chroma_qp_offset=-2 / threads=4 / lookahead_threads=1 / sliced_threads=0 / nr=0 / decimate=1 / interlaced=0 / bluray_compat=0 / constrained_intra=0 / bframes=3 / b_pyramid=2 / b_adapt=1 / b_bias=0 / direct=1 / weightb=1 / open_gop=0 / weightp=2 / keyint=250 / keyint_min=25 / scenecut=40 / intra_refresh=0 / rc_lookahead=40 / rc=crf / mbtree=1 / crf=22.0 / qcomp=0.60 / qpmin=0 / qpmax=69 / qpstep=4 / vbv_maxrate=700 / vbv_bufsize=1835 / crf_max=0.0 / nal_hrd=none / filler=0 / ip_ratio=1.40 / aq=1:1.00
Tagged date : UTC 2015-02-14 16:02:33
Audio
ID : 2
Format : AAC
Format/Info : Advanced Audio Codec
Format profile : LC
Codec ID : 40
Duration : 2h 14mn
Bit rate mode : Variable
Bit rate : 96.0 Kbps
Maximum bit rate : 700 Kbps
Channel(s) : 2 channels
Channel positions : Front: L R
Sampling rate : 48.0 KHz
Compression mode : Lossy
Stream size : 92.4 MiB (12%)
Tagged date : UTC 2015-02-14 16:02:33

Кард

[155] David Burrow [13-5] vs. Anthony Njokuani [15-9]
[135] Joseph Sandoval [7-4] vs. Jason Sampson [11-1]
[135] Caio Machado {5-1] vs. Steven Peterson [11-4]
[135] Augusto Mendes [3-0] vs. Evan Martinez [4-0]
[185] Evan Thompson [5-1] vs. Charles Byrd [6-3]
[135] Saul Elizondo [6-4] vs. Eli Tamez [8-0]
[170] Andrew Parker [5-0] vs. Victor Reyna [5-1]
[Профиль] [ЛС]
Показать сообщения:    
Ответить на тему

Текущее время: 25-Июл 09:49

Часовой пояс: UTC + 1



Вы не можете начинать темы
Вы не можете отвечать на сообщения
Вы не можете редактировать свои сообщения
Вы не можете удалять свои сообщения
Вы не можете голосовать в опросах
Вы не можете прикреплять файлы к сообщениям
Вы не можете скачивать файлы