Gennady Golovkin vs. Martin Murray / Геннадий Головкин - Мартин Мюррей [21.02.2015, Бокс, HBO HD, 60fps, HDTV 720p, ENG] :: Fight Tracker Russia

Gennady Golovkin vs. Martin Murray / Геннадий Головкин - Мартин Мюррей [21.02.2015, Бокс, HBO HD, 60fps, HDTV 720p, ENG]

Ответить на тему
 
Автор Сообщение

plarin ®

Пол: Мужской

Стаж: 2 года 2 месяца

Сообщений: 586

Откуда: Мадрид

Создавать темы 22-Фев-2015 08:11

[Цитировать]

Gennady Golovkin vs. Martin Murray / Геннадий Головкин - Мартин Мюррей- Дата/Год выпуска: 21.02.2015
Вид спорта: Бокс
Язык комментариев: Английский
Канал: HBO HD
Место проведения: "Salle des Étoiles", Монте-Карло, Монако.-Описание: В княжестве Монако один из самых ярких нокаутёров современности 32-летний казахстанец Геннадий Головкин проведёт очередную защиту своих чемпионских титулов по версиям WBA, IBO и WBC Interim. В качестве претендента в этом бою выступит ровесник Геннадия британец Мартин Мюррей, для которого это будет уже третья попытка обзавестись званием полновесного чемпиона мира.-Автор рипа/записи: nabucghost-Качество: HDTV 720p
Формат: MKV
Видео: 1280x720 (16:9), 59,940 fps, H264, ~8000 kbps avg, ~0.144 bit/pixel
Аудио: 48 kHz, AC3, 2/0 (L,R) ch, ~256.00 kbps avg-

Список боев

Gennady Golovkin [31-0] vs. Martin Murray [29-1-1] - For 12 Rounds For Golovkin's Wba Middleweight Title & The Interim Wbc Middleweight Title

Продолжительность

1:19:45

Скриншоты

MediaInfo

General
Unique ID : 213170960775883556608416487255582459427 (0xA05F3BD15A18CBC59CCE08C986784623)
Complete name : E:\uTorrent.Temp\Temp\Gennady.Golovkin.vs.Martin.Murray.60fps.HDTV.720p.x264-ENG-lrn.mkv
Format : Matroska
Format version : Version 4 / Version 2
File size : 4.60 GiB
Duration : 1h 19mn
Overall bit rate : 8 252 Kbps
Encoded date : UTC 2010-02-22 21:41:31
Writing application : mkvmerge v5.9.0 ('On The Loose') built on Dec 9 2012 15:37:01
Writing library : libebml v1.3.0 + libmatroska v1.4.0
Video
ID : 1
Format : AVC
Format/Info : Advanced Video Codec
Format profile : High@L4.0
Format settings, CABAC : Yes
Format settings, ReFrames : 3 frames
Format settings, GOP : M=3, N=13
Codec ID : V_MPEG4/ISO/AVC
Duration : 1h 19mn
Bit rate : 7 832 Kbps
Width : 1 280 pixels
Height : 720 pixels
Display aspect ratio : 16:9
Frame rate mode : Constant
Frame rate : 60.000 fps
Original frame rate : 59.940 fps
Standard : Component
Color space : YUV
Chroma subsampling : 4:2:0
Bit depth : 8 bits
Scan type : Progressive
Bits/(Pixel*Frame) : 0.142
Stream size : 4.36 GiB (95%)
Default : Yes
Forced : No
Color primaries : BT.709
Transfer characteristics : BT.709
Matrix coefficients : BT.709
Color range : Limited
Audio
ID : 2
Format : AC-3
Format/Info : Audio Coding 3
Mode extension : CM (complete main)
Format settings, Endianness : Big
Codec ID : A_AC3
Duration : 1h 19mn
Bit rate mode : Constant
Bit rate : 256 Kbps
Channel(s) : 2 channels
Channel positions : Front: L R
Sampling rate : 48.0 KHz
Bit depth : 16 bits
Compression mode : Lossy
Delay relative to video : -2ms
Stream size : 146 MiB (3%)
Language : English
Default : Yes
Forced : No
[Профиль] [ЛС]
Показать сообщения:    
Ответить на тему

Текущее время: 23-Фев 12:40

Часовой пояс: UTC + 1



Вы не можете начинать темы
Вы не можете отвечать на сообщения
Вы не можете редактировать свои сообщения
Вы не можете удалять свои сообщения
Вы не можете голосовать в опросах
Вы не можете прикреплять файлы к сообщениям
Вы не можете скачивать файлы