WSOF 31 Main Card [17.06.2016 720p CHN] WEB-DL-Rpunk

Ответить на тему
 
Автор Сообщение

Romapunk ®

Пол: Мужской

Стаж: 2 года 7 месяцев

Сообщений: 582

Откуда: Вологодская область

Создавать темы 29-Июн-2016 09:26

[Цитировать]


Описание: WSOF 31 Main Card [17.06.2016 720p CHN] WEB-DL-Rpunk
Дата проведения: 17/06/2016
Место проведения: Foxwoods Resort Casino | Mashantucket, Connecticut
Язык комментариев: Chinese

Fight card

Main Card
Blagoy Ivanov vs. Josh Copeland For heavyweight title
Jason High vs. Mike Ricci
Michael Arrant vs. John Howard
Sheymon Moraes vs. Luis Palomino
Phil Hawes vs. Joshua Key

Video Info

General
Complete name :
Format : MPEG-4
Format profile : Base Media
Codec ID : isom
File size : 1.74 GiB
Duration : 2h 8mn
Overall bit rate mode : Variable
Overall bit rate : 1 930 Kbps
Writing application : Lavf56.15.102
Video
ID : 1
Format : AVC
Format/Info : Advanced Video Codec
Format profile : High@L3.1
Format settings, CABAC : Yes
Format settings, ReFrames : 2 frames
Codec ID : avc1
Codec ID/Info : Advanced Video Coding
Duration : 2h 8mn
Bit rate mode : Variable
Bit rate : 1 792 Kbps
Maximum bit rate : 3 000 Kbps
Width : 1 280 pixels
Height : 720 pixels
Display aspect ratio : 16:9
Frame rate mode : Constant
Frame rate : 25.000 fps
Color space : YUV
Chroma subsampling : 4:2:0
Bit depth : 8 bits
Scan type : Progressive
Bits/(Pixel*Frame) : 0.078
Stream size : 1.61 GiB (93%)
Audio
ID : 2
Format : AAC
Format/Info : Advanced Audio Codec
Format profile : LC
Codec ID : 40
Duration : 2h 8mn
Bit rate mode : Constant
Bit rate : 125 Kbps
Channel(s) : 2 channels
Channel positions : Front: L R
Sampling rate : 48.0 KHz
Compression mode : Lossy
Stream size : 116 MiB (6%)

Screenshots



[Профиль] [ЛС]
Показать сообщения:    
Ответить на тему

Текущее время: 28-Июл 12:01

Часовой пояс: UTC + 1



Вы не можете начинать темы
Вы не можете отвечать на сообщения
Вы не можете редактировать свои сообщения
Вы не можете удалять свои сообщения
Вы не можете голосовать в опросах
Вы не можете прикреплять файлы к сообщениям
Вы не можете скачивать файлы