UFC Fight Night 60: Henderson vs. Thatch (Full Event) [14.02.2015, MMA, WEBRip|HDTV 720p, ENG] :: Fight Tracker Russia

UFC Fight Night 60: Henderson vs. Thatch (Full Event) [14.02.2015, MMA, WEBRip|HDTV 720p, ENG]

Ответить на тему
 
Автор Сообщение

plarin ®

Пол: Мужской

Стаж: 2 года 2 месяца

Сообщений: 586

Откуда: Мадрид

Создавать темы 15-Фев-2015 11:17

[Цитировать]

UFC Fight Night 60: Henderson vs. Thatch (Full Event)- Год выпуска: 14.02.2014
Вид спорта: MMA
Продолжительность: 5:01:49
Язык комментариев: Английский-Описание: Все бои турнира "UFC Fight Night 60: Henderson vs. Thatch", прошедшего 14 февраля 2015 года в "1stBank Center", Брумфилд, Колорадо, США.-Автор рипа/записи: Ben | DOCERE-Состав:
1. UFC Fight Night 60: Preliminary Card (1:33:48)
2. UFC Fight Night 60: Main Card (3:28:47)-Качество: WEBRip|HDTV 720p
Формат: MP4 | MKV
Видео кодек: H264
Аудио кодек: AAC | MPA-

Технические характеристики и скриншоты

Preliminary Card (WEBRip 720p)
Видео: 1280x720 (16:9), 59,940 fps, H264, ~4000 kbps avg, ~0.072 bit/pixel
Аудио: 48 kHz, AAC, 2/0 (L,R), ~128.00 kbps avg- -Main Card (HDTV 720p)
Видео: 1280x720 (16:9), 29,970 fps, H264, ~2500 kbps avg, ~0.110 bit/pixel
Аудио: 48 kHz, MPA, 2/0 (L,R), ~224.00 kbps avg-

MediaInfo

UFC.Fight.Night.Henderson.vs.Thatch.Prelims.2015.02.14.60FPS.720p.WEBRipH.264-Ben.mp4

General
Complete name : E:\UFC.Fight.Night.Henderson.vs.Thatch.Prelims.2015.02.14.60FPS.720p.WEBRipH.264-Ben.mp4
Format : MPEG-4
Format profile : Base Media
Codec ID : isom
File size : 2.65 GiB
Duration : 1h 33mn
Overall bit rate mode : Constant
Overall bit rate : 4 072 Kbps
Writing application : Lavf53.31.100
Video
ID : 1
Format : AVC
Format/Info : Advanced Video Codec
Format profile : Main@L3.2
Format settings, CABAC : Yes
Format settings, ReFrames : 3 frames
Codec ID : avc1
Codec ID/Info : Advanced Video Coding
Duration : 1h 33mn
Bit rate mode : Constant
Bit rate : 4 000 Kbps
Width : 1 280 pixels
Height : 720 pixels
Display aspect ratio : 16:9
Frame rate mode : Variable
Frame rate : 59.940 fps
Minimum frame rate : 59.880 fps
Maximum frame rate : 60.000 fps
Standard : NTSC
Color space : YUV
Chroma subsampling : 4:2:0
Bit depth : 8 bits
Scan type : Progressive
Bits/(Pixel*Frame) : 0.072
Stream size : 2.61 GiB (99%)
Color range : Limited
Audio
ID : 2
Format : AAC
Format/Info : Advanced Audio Codec
Format profile : HE-AAC / LC
Codec ID : 40
Duration : 1h 33mn
Duration_LastFrame : -43ms
Bit rate mode : Constant
Bit rate : 48.0 Kbps
Channel(s) : 2 channels
Channel positions : Front: L R
Sampling rate : 48.0 KHz / 24.0 KHz
Compression mode : Lossy
Stream size : 32.0 MiB (1%)
Language : English

UFC.Fight.Night.60.720p.HDTV.x264-DOCERE.mkv

General
Unique ID : 318860807028887142313079667114455968015 (0xEFE25B8DF4FB9E681F264924A671A90F)
Complete name : E:\UFC.Fight.Night.60.720p.HDTV.x264-DOCERE.mkv
Format : Matroska
Format version : Version 4 / Version 2
File size : 4.10 GiB
Duration : 3h 28mn
Overall bit rate : 2 815 Kbps
Encoded date : UTC 2015-02-15 09:20:48
Writing application : mkvmerge v6.7.0 ('Back to the Ground') 64bit built on Jan 9 2014 18:03:17
Writing library : libebml v1.3.0 + libmatroska v1.4.1
Video
ID : 1
Format : AVC
Format/Info : Advanced Video Codec
Format profile : High@L4.1
Format settings, CABAC : Yes
Format settings, ReFrames : 5 frames
Codec ID : V_MPEG4/ISO/AVC
Duration : 3h 28mn
Bit rate : 2 535 Kbps
Width : 1 280 pixels
Height : 720 pixels
Display aspect ratio : 16:9
Frame rate mode : Constant
Frame rate : 25.000 fps
Color space : YUV
Chroma subsampling : 4:2:0
Bit depth : 8 bits
Scan type : Progressive
Bits/(Pixel*Frame) : 0.110
Stream size : 3.70 GiB (90%)
Writing library : x264 core 144 r2525 40bb568
Encoding settings : cabac=1 / ref=5 / deblock=1:0:0 / analyse=0x3:0x113 / me=umh / subme=8 / psy=1 / psy_rd=1.00:0.00 / mixed_ref=1 / me_range=16 / chroma_me=1 / trellis=1 / 8x8dct=1 / cqm=0 / deadzone=21,11 / fast_pskip=1 / chroma_qp_offset=-2 / threads=18 / lookahead_threads=3 / sliced_threads=0 / nr=0 / decimate=1 / interlaced=0 / bluray_compat=0 / stitchable=1 / constrained_intra=0 / bframes=3 / b_pyramid=2 / b_adapt=2 / b_bias=0 / direct=3 / weightb=1 / open_gop=0 / weightp=2 / keyint=250 / keyint_min=25 / scenecut=40 / intra_refresh=0 / rc_lookahead=50 / rc=crf / mbtree=1 / crf=23.0 / qcomp=0.60 / qpmin=0 / qpmax=69 / qpstep=4 / ip_ratio=1.40 / aq=1:1.00
Default : Yes
Forced : No
Color primaries : BT.709
Transfer characteristics : BT.709
Matrix coefficients : BT.709
Color range : Limited
Audio
ID : 2
Format : MPEG Audio
Format version : Version 1
Format profile : Layer 2
Codec ID : A_MPEG/L2
Codec ID/Hint : MP2
Duration : 3h 28mn
Bit rate mode : Constant
Bit rate : 224 Kbps
Channel(s) : 2 channels
Sampling rate : 48.0 KHz
Compression mode : Lossy
Stream size : 335 MiB (8%)
Default : Yes
Forced : No

Кард

Preliminary Card [Fox Sports 1]:
-Main Card [Fox Sports 1]:
[Профиль] [ЛС]
Показать сообщения:    
Ответить на тему

Текущее время: 23-Фев 08:20

Часовой пояс: UTC + 1



Вы не можете начинать темы
Вы не можете отвечать на сообщения
Вы не можете редактировать свои сообщения
Вы не можете удалять свои сообщения
Вы не можете голосовать в опросах
Вы не можете прикреплять файлы к сообщениям
Вы не можете скачивать файлы