UFC Fight Night 60: Henderson vs. Thatch (Full Event) [14.02.2014, MMA, HDTV 400p, ENG] :: Fight Tracker Russia

UFC Fight Night 60: Henderson vs. Thatch (Full Event) [14.02.2014, MMA, HDTV 400p, ENG]

Ответить на тему
 
Автор Сообщение

plarin ®

Пол: Мужской

Стаж: 2 года 5 месяцев

Сообщений: 606

Откуда: Мадрид

Создавать темы 15-Фев-2015 09:06

[Цитировать]

UFC Fight Night 60: Henderson vs. Thatch (Full Event)- Год выпуска: 14.02.2014
Вид спорта: MMA
Продолжительность: 4:26:45
Язык комментариев: Английский-Описание: Все бои турнира "UFC Fight Night 60: Henderson vs. Thatch", прошедшего 14 февраля 2015 года в "1stBank Center", Брумфилд, Колорадо, США.-Автор рипа/записи: Sir. Paul-Состав:
1. UFC Fight Night 60: Preliminary Card (1:33:48)
3. UFC Fight Night 60: Main Card (2:52:57)-Качество: HDTV 400p
Формат: MP4
Видео кодек: H264
Аудио кодек: AAC-

Технические характеристики и скриншоты

Preliminary Card (HDTV 400p)
Видео: 700x400 (16:9), 29,970 fps, H264, ~1100 kbps avg, ~0.130 bit/pixel
Аудио: 48 kHz, AAC, 2/0 (L,R), ~160.00 kbps avg- -Main Card (HDTV 400p)
Видео: 700x400 (16:9), 29,970 fps, H264, ~1100 kbps avg, ~0.130 bit/pixel
Аудио: 48 kHz, AAC, 2/0 (L,R), ~160.00 kbps avg-

MediaInfo

UFC.Fight.Night.60.Prelims.Feb.14th.2015.HDTV.x264-Sir.Paul.mp4

General
Complete name : E:\uTorrent.Temp\Temp\UFC.Fight.Night.60.Prelims.Feb.14th.2015.HDTV.x264-Sir.Paul.mp4
Format : MPEG-4
Format profile : Base Media / Version 2
Codec ID : mp42
File size : 842 MiB
Duration : 1h 33mn
Overall bit rate mode : Variable
Overall bit rate : 1 256 Kbps
Writing application : HandBrake 0.10.0 2014112200
Video
ID : 1
Format : AVC
Format/Info : Advanced Video Codec
Format profile : Main@L4.0
Format settings, CABAC : Yes
Format settings, ReFrames : 4 frames
Codec ID : avc1
Codec ID/Info : Advanced Video Coding
Duration : 1h 33mn
Bit rate : 1 100 Kbps
Width : 700 pixels
Height : 400 pixels
Display aspect ratio : 16:9
Frame rate mode : Constant
Frame rate : 29.970 fps
Color space : YUV
Chroma subsampling : 4:2:0
Bit depth : 8 bits
Scan type : Progressive
Bits/(Pixel*Frame) : 0.131
Stream size : 730 MiB (87%)
Writing library : x264 core 142 r2479 dd79a61
Encoding settings : cabac=1 / ref=1 / deblock=1:0:0 / analyse=0x1:0x111 / me=hex / subme=2 / psy=1 / psy_rd=1.00:0.00 / mixed_ref=0 / me_range=16 / chroma_me=1 / trellis=0 / 8x8dct=0 / cqm=0 / deadzone=21,11 / fast_pskip=1 / chroma_qp_offset=0 / threads=12 / lookahead_threads=3 / sliced_threads=0 / nr=0 / decimate=1 / interlaced=0 / bluray_compat=0 / constrained_intra=0 / bframes=3 / b_pyramid=2 / b_adapt=1 / b_bias=0 / direct=1 / weightb=1 / open_gop=0 / weightp=1 / keyint=300 / keyint_min=30 / scenecut=40 / intra_refresh=0 / rc_lookahead=10 / rc=abr / mbtree=1 / bitrate=1100 / ratetol=1.0 / qcomp=0.60 / qpmin=0 / qpmax=69 / qpstep=4 / vbv_maxrate=20000 / vbv_bufsize=25000 / nal_hrd=none / filler=0 / ip_ratio=1.40 / aq=1:1.00
Color primaries : BT.709
Transfer characteristics : BT.709
Matrix coefficients : BT.709
Color range : Limited
Audio
ID : 2
Format : AAC
Format/Info : Advanced Audio Codec
Format profile : LC
Codec ID : 40
Duration : 1h 33mn
Bit rate mode : Variable
Bit rate : 160 Kbps
Channel(s) : 2 channels
Channel positions : Front: L R
Sampling rate : 48.0 KHz
Compression mode : Lossy
Stream size : 107 MiB (13%)
Title : Stereo / Stereo
Language : English

UFC.Fight.Night.60.Henderson.vs.Thatch.Feb.14th.2015.HDTV.x264-Sir.Paul.mp4

General
Complete name : E:\uTorrent.Temp\Done\UFC.Fight.Night.60.Henderson.vs.Thatch.Feb.14th.2015.HDTV.x264-Sir.Paul.mp4
Format : MPEG-4
Format profile : Base Media / Version 2
Codec ID : mp42
File size : 1.53 GiB
Duration : 2h 52mn
Overall bit rate mode : Variable
Overall bit rate : 1 266 Kbps
Writing application : HandBrake 0.10.0 2014112200
Video
ID : 1
Format : AVC
Format/Info : Advanced Video Codec
Format profile : Main@L4.0
Format settings, CABAC : Yes
Format settings, ReFrames : 4 frames
Codec ID : avc1
Codec ID/Info : Advanced Video Coding
Duration : 2h 52mn
Bit rate : 1 100 Kbps
Width : 700 pixels
Height : 400 pixels
Display aspect ratio : 16:9
Frame rate mode : Constant
Frame rate : 29.970 fps
Color space : YUV
Chroma subsampling : 4:2:0
Bit depth : 8 bits
Scan type : Progressive
Bits/(Pixel*Frame) : 0.131
Stream size : 1.33 GiB (87%)
Writing library : x264 core 142 r2479 dd79a61
Encoding settings : cabac=1 / ref=1 / deblock=1:0:0 / analyse=0x1:0x111 / me=hex / subme=2 / psy=1 / psy_rd=1.00:0.00 / mixed_ref=0 / me_range=16 / chroma_me=1 / trellis=0 / 8x8dct=0 / cqm=0 / deadzone=21,11 / fast_pskip=1 / chroma_qp_offset=0 / threads=12 / lookahead_threads=3 / sliced_threads=0 / nr=0 / decimate=1 / interlaced=0 / bluray_compat=0 / constrained_intra=0 / bframes=3 / b_pyramid=2 / b_adapt=1 / b_bias=0 / direct=1 / weightb=1 / open_gop=0 / weightp=1 / keyint=300 / keyint_min=30 / scenecut=40 / intra_refresh=0 / rc_lookahead=10 / rc=abr / mbtree=1 / bitrate=1100 / ratetol=1.0 / qcomp=0.60 / qpmin=0 / qpmax=69 / qpstep=4 / vbv_maxrate=20000 / vbv_bufsize=25000 / nal_hrd=none / filler=0 / ip_ratio=1.40 / aq=1:1.00
Color primaries : BT.709
Transfer characteristics : BT.709
Matrix coefficients : BT.709
Color range : Limited
Audio
ID : 2
Format : AAC
Format/Info : Advanced Audio Codec
Format profile : LC
Codec ID : 40
Duration : 2h 52mn
Bit rate mode : Variable
Bit rate : 160 Kbps
Channel(s) : 2 channels
Channel positions : Front: L R
Sampling rate : 48.0 KHz
Compression mode : Lossy
Stream size : 198 MiB (13%)
Title : Stereo / Stereo
Language : English

Кард

Preliminary Card [Fox Sports 1]:
-Main Card [Fox Sports 1]:
[Профиль] [ЛС]
Показать сообщения:    
Ответить на тему

Текущее время: 28-Май 16:00

Часовой пояс: UTC + 1



Вы не можете начинать темы
Вы не можете отвечать на сообщения
Вы не можете редактировать свои сообщения
Вы не можете удалять свои сообщения
Вы не можете голосовать в опросах
Вы не можете прикреплять файлы к сообщениям
Вы не можете скачивать файлы