WSOF 18: Moraes vs. Hill [World Series of Fighting 18] (Main Card) [12.02.2014, MMA, WEB-DL 720p, ENG] :: Fight Tracker Russia

WSOF 18: Moraes vs. Hill [World Series of Fighting 18] (Main Card) [12.02.2014, MMA, WEB-DL 720p, ENG]

Ответить на тему
 
Автор Сообщение

plarin ®

Пол: Мужской

Стаж: 2 года 5 месяцев

Сообщений: 606

Откуда: Мадрид

Создавать темы 14-Фев-2015 17:24

[Цитировать]

WSOF 18: Moraes vs. Hill [World Series of Fighting 18] (Main Card)- Год выпуска: 12.02.2014
Вид спорта: MMA
Продолжительность: 2:13:52
Язык комментариев: Английский-Описание: Главные бои турнира "WSOF 18: Moraes vs. Hill", прошедшего 12 февраля 2015 года в "Northlands Expo Centre ", Эдмонтон, Альберта, Канада.-Автор рипа/записи: ViLLAiNS-Качество: WEB-DL 720p
Формат: MP4
Видео: 1280x720 (16:9), 29,970 fps, H264, ~2700 kbps avg, ~0.099 bit/pixel
Аудио: 48 kHz, AAC, 2/0 (L,R) ch, ~56.00 kbps avg-

Скриншоты

MediaInfo

General
Complete name : E:\World.Series.of.Fighting.18.Moraes.vs.Hill.720p.WEB.DL.x264-ViLLAiNS.mp4
Format : MPEG-4
Format profile : Base Media
Codec ID : isom
File size : 2.60 GiB
Duration : 2h 13mn
Overall bit rate mode : Variable
Overall bit rate : 2 778 Kbps
Encoded date : UTC 2015-02-14 14:23:17
Tagged date : UTC 2015-02-14 14:23:17
Writing application : Yamb 2.1.0.0 [http://yamb.unite-video.com]
Video
ID : 1
Format : AVC
Format/Info : Advanced Video Codec
Format profile : High@L3.1
Format settings, CABAC : Yes
Format settings, ReFrames : 4 frames
Codec ID : avc1
Codec ID/Info : Advanced Video Coding
Duration : 2h 13mn
Bit rate mode : Constant
Bit rate : 2 721 Kbps
Nominal bit rate : 3 450 Kbps
Maximum bit rate : 9 820 Kbps
Width : 1 280 pixels
Height : 720 pixels
Display aspect ratio : 16:9
Frame rate mode : Constant
Frame rate : 29.970 fps
Color space : YUV
Chroma subsampling : 4:2:0
Bit depth : 8 bits
Scan type : Progressive
Bits/(Pixel*Frame) : 0.099
Stream size : 2.54 GiB (98%)
Title : 64:fps=29.970@GPAC0.5.2-DEV-rev70-g0da07c9-master
Encoded date : UTC 2015-02-14 14:23:17
Tagged date : UTC 2015-02-14 14:27:41
Audio
ID : 2
Format : AAC
Format/Info : Advanced Audio Codec
Format profile : HE-AAC / LC
Codec ID : 40
Duration : 2h 13mn
Bit rate mode : Variable
Bit rate : 54.8 Kbps
Maximum bit rate : 65.5 Kbps
Channel(s) : 2 channels
Channel positions : Front: L R
Sampling rate : 44.1 KHz / 22.05 KHz
Compression mode : Lossy
Stream size : 52.5 MiB (2%)
Title : aac@GPAC0.5.2-DEV-rev70-g0da07c9-master
Encoded date : UTC 2015-02-14 14:27:24
Tagged date : UTC 2015-02-14 14:27:41

Кард

Marlon Moraes vs. Josh Hill **WSOF Bantamweight Championship**
Shane Campbell vs. Derek Boyle
Andrew McInnes vs. Cody McKenzie
Hakeem Dawodu vs. Tristan Johnson
[Профиль] [ЛС]
Показать сообщения:    
Ответить на тему

Текущее время: 28-Май 07:47

Часовой пояс: UTC + 1



Вы не можете начинать темы
Вы не можете отвечать на сообщения
Вы не можете редактировать свои сообщения
Вы не можете удалять свои сообщения
Вы не можете голосовать в опросах
Вы не можете прикреплять файлы к сообщениям
Вы не можете скачивать файлы