WSOF 18: Moraes vs. Hill [World Series of Fighting 18] (Full Event) [12.02.2014, MMA, WEBRip 432p|360p, ENG] :: Fight Tracker Russia

WSOF 18: Moraes vs. Hill [World Series of Fighting 18] (Full Event) [12.02.2014, MMA, WEBRip 432p|360p, ENG]

Ответить на тему
 
Автор Сообщение

plarin ®

Пол: Мужской

Стаж: 2 года 1 месяц

Сообщений: 566

Откуда: Мадрид

Создавать темы 14-Фев-2015 17:23

[Цитировать]

WSOF 18: Moraes vs. Hill [World Series of Fighting 18] (Full Event)- Год выпуска: 12.02.2014
Вид спорта: MMA
Продолжительность: 2:47:45
Язык комментариев: Английский-Описание: Все бои турнира "WSOF 18: Moraes vs. Hill", прошедшего 12 февраля 2015 года в "Northlands Expo Centre ", Эдмонтон, Альберта, Канада.-Автор рипа/записи: ThS-Состав:
1. WSOF 18: Preliminary Card (0:35:57)
2. WSOF 18: Main Card (2:11:48)-Качество: WEBRip 432p|360p
Формат: FLV|MP4
Видео кодек: H264
Аудио кодек: AAC-

Технические характеристики и скриншоты

Preliminary Card (WEBRip 432p)
Видео: 768x432 (16:9), 29,970 fps, H264, ~246 kbps avg, ~0.074 bit/pixel
Аудио: 48 kHz, AAC, 2/0 (L,R), ~64.00 kbps avg- -Main Card (WEBRip 360p)
Видео: 640x360 (16:9), 29,970 fps, H264, ~1100 kbps avg, ~0.158 bit/pixel
Аудио: 48 kHz, MP3, 2/0 (L,R), ~180.00 kbps avg-

MediaInfo

WSOF.World.Series.of.Fighting.18.Preliminary.Fights.WEBRip.x264-ThS.flv

General
Complete name : E:\WSOF 18. Moraes vs. Hill (Full Event) [WEBRip, ENG]\WSOF.World.Series.of.Fighting.18.Preliminary.Fights.WEBRip.x264-ThS.flv
Format : Flash Video
File size : 173 MiB
Duration : 35mn 57s
Overall bit rate : 674 Kbps
trackinfo_length : 270370530.000
trackinfo_timescale : 90000.000
trackinfo_language : eng
trackinfo_sampledescription : mp4a
Video
Format : AVC
Format/Info : Advanced Video Codec
Format profile : Main@L4.1
Format settings, CABAC : Yes
Format settings, ReFrames : 1 frame
Format settings, GOP : M=1, N=60
Codec ID : 7
Duration : 35mn 57s
Width : 768 pixels
Height : 432 pixels
Display aspect ratio : 16:9
Frame rate mode : Constant
Frame rate : 29.970 fps
Color space : YUV
Chroma subsampling : 4:2:0
Bit depth : 8 bits
Scan type : Progressive
Audio
Format : AAC
Format/Info : Advanced Audio Codec
Format profile : LC
Codec ID : 10
Duration : 35mn 57s
Channel(s) : 2 channels
Channel positions : Front: L R
Sampling rate : 44.1 KHz
Compression mode : Lossy

WSOF.World.Series.of.Fighting.18.WEBRip.x264-ThS.mp4

General
Complete name : E:\uTorrent.Temp\Done\WSOF 18. Moraes vs. Hill (Full Event) [WEBRip, ENG]\WSOF.World.Series.of.Fighting.18.WEBRip.x264-ThS.mp4
Format : MPEG-4
Format profile : Base Media
Codec ID : isom
File size : 1.18 GiB
Duration : 2h 11mn
Overall bit rate mode : Variable
Overall bit rate : 1 287 Kbps
Encoded date : UTC 2015-02-13 16:51:44
Tagged date : UTC 2015-02-13 16:51:44
Writing application : Lavf51.12.1
Video
ID : 1
Format : AVC
Format/Info : Advanced Video Codec
Format profile : High@L3.0
Format settings, CABAC : Yes
Format settings, ReFrames : 3 frames
Codec ID : avc1
Codec ID/Info : Advanced Video Coding
Duration : 2h 11mn
Bit rate : 1 103 Kbps
Width : 640 pixels
Height : 360 pixels
Display aspect ratio : 16:9
Frame rate mode : Constant
Frame rate : 30.303 fps
Color space : YUV
Chroma subsampling : 4:2:0
Bit depth : 8 bits
Scan type : Progressive
Bits/(Pixel*Frame) : 0.158
Stream size : 1.02 GiB (86%)
Encoded date : UTC 2015-02-13 16:51:44
Tagged date : UTC 2015-02-13 16:51:44
Audio
ID : 2
Format : MPEG Audio
Format version : Version 1
Format profile : Layer 3
Mode : Joint stereo
Mode extension : MS Stereo
Codec ID : 6B
Duration : 2h 11mn
Bit rate mode : Variable
Bit rate : 180 Kbps
Channel(s) : 2 channels
Sampling rate : 44.1 KHz
Compression mode : Lossy
Stream size : 170 MiB (14%)
Encoded date : UTC 2015-02-13 16:51:44
Tagged date : UTC 2015-02-13 16:51:44

Кард

Preliminary Card [WSOF.com]:
Matt Baker vs. Ali Mokdad
Graham Park vs. Marcus Hicks-Main Card [NBC Sports Net]:
Marlon Moraes vs. Josh Hill **WSOF Bantamweight Championship**
Shane Campbell vs. Derek Boyle
Andrew McInnes vs. Cody McKenzie
Hakeem Dawodu vs. Tristan Johnson
[Профиль] [ЛС]
Показать сообщения:    
Ответить на тему

Текущее время: 21-Янв 09:29

Часовой пояс: UTC + 1



Вы не можете начинать темы
Вы не можете отвечать на сообщения
Вы не можете редактировать свои сообщения
Вы не можете удалять свои сообщения
Вы не можете голосовать в опросах
Вы не можете прикреплять файлы к сообщениям
Вы не можете скачивать файлы