Bellator 133: Shlemenko vs. Manhoef (Full Event) [13.02.2015, MMA, WEB-DL 432p | HDTV 406p, ENG]

Ответить на тему
 
Автор Сообщение

plarin ®

Пол: Мужской

Стаж: 2 года 10 месяцев

Сообщений: 619

Откуда: Мадрид

Создавать темы 14-Фев-2015 17:22

[Цитировать]

Bellator 133: Shlemenko vs. Manhoef (Full Event)- Год выпуска: 13.02.2015
Вид спорта: MMA
Продолжительность: 2:22:03
Язык комментариев: Английский-Описание: Все бои турнира "Bellator 133: Shlemenko vs. Manhoef", прошедшего 13 февраля 2015 года в "SaveMart Center", Фресно, Калифорния, США.-Автор рипа/записи: ViLLAiNS|KYR-Состав:
1. Bellator 133: Preliminary Card (0:44:01)
2. Bellator 133: Main Card (1:38:02)-Качество: WEB-DL 432p | HDTV 406p
Формат: MP4
Видео кодек: H264
Аудио кодек: AAC-

Технические характеристики и скриншоты

Preliminary Card (WEB-DL 432p)
Видео: 768x432 (16:9), 29,970 fps, H264, ~1700 kbps avg, ~0.171 bit/pixel
Аудио: 48 kHz, AAC, 2/0 (L,R), ~96.00 kbps avg- -Main Card (HDTV 406p)
Видео: 720x406 (16:9), 29,970 fps, H264, ~1200 kbps avg, ~0.134 bit/pixel
Аудио: 48 kHz, AAC, 2/0 (L,R), ~120.00 kbps avg-

MediaInfo

Bellator.MMA.133.Prelims.WEB.DL.x264-ViLLAiNS.mp4

General
Complete name : E:\Bellator 133. Shlemenko vs. Manhoef (Full Event) [SD 400p, ENG]\Bellator.MMA.133.Prelims.WEB.DL.x264-ViLLAiNS.mp4
Format : MPEG-4
Format profile : Base Media
Codec ID : isom
File size : 566 MiB
Duration : 44mn 1s
Overall bit rate : 1 797 Kbps
Writing application : Lavf56.18.100
Video
ID : 1
Format : AVC
Format/Info : Advanced Video Codec
Format profile : High@L3.0
Format settings, CABAC : Yes
Format settings, ReFrames : 5 frames
Codec ID : avc1
Codec ID/Info : Advanced Video Coding
Duration : 44mn 1s
Bit rate : 1 700 Kbps
Width : 768 pixels
Height : 432 pixels
Display aspect ratio : 16:9
Frame rate mode : Constant
Frame rate : 29.970 fps
Color space : YUV
Chroma subsampling : 4:2:0
Bit depth : 8 bits
Scan type : Progressive
Bits/(Pixel*Frame) : 0.171
Stream size : 534 MiB (94%)
Writing library : x264 core 144 r2525 40bb568
Encoding settings : cabac=1 / ref=5 / deblock=1:0:0 / analyse=0x3:0x113 / me=umh / subme=8 / psy=1 / psy_rd=1.00:0.00 / mixed_ref=1 / me_range=16 / chroma_me=1 / trellis=1 / 8x8dct=1 / cqm=0 / deadzone=21,11 / fast_pskip=1 / chroma_qp_offset=-2 / threads=6 / lookahead_threads=1 / sliced_threads=0 / nr=0 / decimate=1 / interlaced=0 / bluray_compat=0 / constrained_intra=0 / bframes=3 / b_pyramid=2 / b_adapt=2 / b_bias=0 / direct=3 / weightb=1 / open_gop=0 / weightp=2 / keyint=250 / keyint_min=25 / scenecut=40 / intra_refresh=0 / rc_lookahead=50 / rc=abr / mbtree=1 / bitrate=1700 / ratetol=1.0 / qcomp=0.60 / qpmin=0 / qpmax=69 / qpstep=4 / ip_ratio=1.40 / aq=1:1.00
Audio
ID : 2
Format : AAC
Format/Info : Advanced Audio Codec
Format profile : HE-AAC / LC
Codec ID : 40
Duration : 44mn 1s
Bit rate mode : Constant
Bit rate : 96.0 Kbps
Channel(s) : 2 channels
Channel positions : Front: L R
Sampling rate : 48.0 KHz / 24.0 KHz
Compression mode : Lossy
Stream size : 29.8 MiB (5%)

Bellator.133.HDTV.x264-KYR.mp4

General
Complete name : E:\Bellator.133.HDTV.x264-KYR.mp4
Format : MPEG-4
Format profile : Base Media
Codec ID : isom
File size : 909 MiB
Duration : 1h 38mn
Overall bit rate mode : Variable
Overall bit rate : 1 297 Kbps
Encoded date : UTC 2015-02-14 14:15:30
Tagged date : UTC 2015-02-14 14:15:30
Writing application : My MP4Box GUI 0.6.0.6 <http://my-mp4box-gui.zymichost.com>
Video
ID : 1
Format : AVC
Format/Info : Advanced Video Codec
Format profile : High@L3.1
Format settings, CABAC : Yes
Format settings, ReFrames : 5 frames
Codec ID : avc1
Codec ID/Info : Advanced Video Coding
Duration : 1h 38mn
Bit rate : 1 173 Kbps
Maximum bit rate : 3 202 Kbps
Width : 720 pixels
Height : 406 pixels
Display aspect ratio : 16:9
Frame rate mode : Constant
Frame rate : 29.970 fps
Color space : YUV
Chroma subsampling : 4:2:0
Bit depth : 8 bits
Scan type : Progressive
Bits/(Pixel*Frame) : 0.134
Stream size : 822 MiB (90%)
Title : final.mp4
Writing library : x264 core 144 r2525 40bb568
Encoding settings : cabac=1 / ref=5 / deblock=1:0:0 / analyse=0x3:0x113 / me=umh / subme=8 / psy=1 / psy_rd=1.00:0.00 / mixed_ref=1 / me_range=16 / chroma_me=1 / trellis=1 / 8x8dct=1 / cqm=0 / deadzone=21,11 / fast_pskip=1 / chroma_qp_offset=-2 / threads=18 / lookahead_threads=3 / sliced_threads=0 / nr=0 / decimate=1 / interlaced=0 / bluray_compat=0 / constrained_intra=0 / bframes=3 / b_pyramid=2 / b_adapt=2 / b_bias=0 / direct=3 / weightb=1 / open_gop=0 / weightp=2 / keyint=250 / keyint_min=25 / scenecut=40 / intra_refresh=0 / rc_lookahead=50 / rc=crf / mbtree=1 / crf=24.0 / qcomp=0.60 / qpmin=0 / qpmax=69 / qpstep=4 / ip_ratio=1.40 / aq=1:1.00
Encoded date : UTC 2015-02-14 13:06:36
Tagged date : UTC 2015-02-14 14:15:34
Matrix coefficients : BT.709
Color range : Limited
Audio
ID : 2
Format : AAC
Format/Info : Advanced Audio Codec
Format profile : LC
Codec ID : 40
Duration : 1h 38mn
Bit rate mode : Variable
Bit rate : 120 Kbps
Maximum bit rate : 163 Kbps
Channel(s) : 2 channels
Channel positions : Front: L R
Sampling rate : 48.0 KHz
Compression mode : Lossy
Stream size : 83.9 MiB (9%)
Title : 1 PID 193e 2_0ch 48KHz 384Kbps DELAY 24ms.aac
Encoded date : UTC 2015-02-14 14:15:33
Tagged date : UTC 2015-02-14 14:15:34

Кард

Preliminary Card:
-Main Card:
[Профиль] [ЛС]

plarin ®

Пол: Мужской

Стаж: 2 года 10 месяцев

Сообщений: 619

Откуда: Мадрид

Создавать темы 14-Фев-2015 20:02 (спустя 2 часа 40 минут)

[Цитировать]

Добавлены прилимы. Перекачайте торрент.
З.Ы. Глюкануло, так и не понял чего прилепилась сюда 720п раздача.
[Профиль] [ЛС]
Показать сообщения:    
Ответить на тему

Текущее время: 19-Ноя 18:48

Часовой пояс: UTC + 1



Вы не можете начинать темы
Вы не можете отвечать на сообщения
Вы не можете редактировать свои сообщения
Вы не можете удалять свои сообщения
Вы не можете голосовать в опросах
Вы не можете прикреплять файлы к сообщениям
Вы не можете скачивать файлы