Bellator 133: Shlemenko vs. Manhoef (Full Event) [13.02.2015, MMA, WEB-DL|HDTV 720p, ENG] :: Fight Tracker Russia

Bellator 133: Shlemenko vs. Manhoef (Full Event) [13.02.2015, MMA, WEB-DL|HDTV 720p, ENG]

Ответить на тему
 
Автор Сообщение

plarin ®

Пол: Мужской

Стаж: 2 года 4 месяца

Сообщений: 602

Откуда: Мадрид

Создавать темы 14-Фев-2015 17:21

[Цитировать]

Bellator 133: Shlemenko vs. Manhoef (Full Event)- Год выпуска: 13.02.2015
Вид спорта: MMA
Продолжительность: 2:22:03
Язык комментариев: Английский-Описание: Все бои турнира "Bellator 133: Shlemenko vs. Manhoef", прошедшего 13 февраля 2015 года в "SaveMart Center", Фресно, Калифорния, США.-Автор рипа/записи: ViLLAiNS|KYR-Состав:
1. Bellator 133: Preliminary Card (0:44:01)
2. Bellator 133: Main Card (1:38:02)-Качество: WEB-DL|HDTV 720p
Формат: MP4|MKV
Видео кодек: H264
Аудио кодек: AAC-

Технические характеристики и скриншоты

Preliminary Card (WEB-DL 720p)
Видео: 1280x720 (16:9), 29,970 fps, H264, ~3400 kbps avg, ~0.123 bit/pixel
Аудио: 48 kHz, AAC, 2/0 (L,R), ~96.00 kbps avg- -Main Card (HDTV 720p)
Видео: 1280x720 (16:9), 29,970 fps, H264, ~3900 kbps avg, ~0.140 bit/pixel
Аудио: 48 kHz, AC3 Dolby Digital, 2/0 (L,R) ch, ~384.00 kbps avg-

MediaInfo

Bellator.MMA.133.Prelims.720p.WEB.DL.x264-ViLLAiNS.mp4

General
Complete name : E:\uTorrent.Temp\Temp\Bellator 133. Shlemenko vs. Manhoef (Full Event) [HD 720p, ENG]\Bellator.MMA.133.Prelims.720p.WEB.DL.x264-ViLLAiNS.mp4
Format : MPEG-4
Format profile : Base Media
Codec ID : isom
File size : 1.07 GiB
Duration : 44mn 1s
Overall bit rate mode : Constant
Overall bit rate : 3 487 Kbps
Writing application : Lavf53.31.100
Video
ID : 1
Format : AVC
Format/Info : Advanced Video Codec
Format profile : High@L3.2
Format settings, CABAC : Yes
Format settings, ReFrames : 4 frames
Codec ID : avc1
Codec ID/Info : Advanced Video Coding
Duration : 44mn 1s
Bit rate mode : Constant
Bit rate : 3 404 Kbps
Width : 1 280 pixels
Height : 720 pixels
Display aspect ratio : 16:9
Frame rate mode : Variable
Frame rate : 29.970 fps
Minimum frame rate : 29.970 fps
Maximum frame rate : 30.000 fps
Standard : NTSC
Color space : YUV
Chroma subsampling : 4:2:0
Bit depth : 8 bits
Scan type : Progressive
Bits/(Pixel*Frame) : 0.123
Stream size : 1.04 GiB (97%)
Color primaries : BT.709
Transfer characteristics : BT.709
Matrix coefficients : BT.709
Color range : Limited
Audio
ID : 2
Format : AAC
Format/Info : Advanced Audio Codec
Format profile : HE-AAC / LC
Codec ID : 40
Duration : 44mn 1s
Duration_LastFrame : -43ms
Bit rate mode : Constant
Bit rate : 96.0 Kbps
Channel(s) : 2 channels
Channel positions : Front: L R
Sampling rate : 48.0 KHz / 24.0 KHz
Compression mode : Lossy
Stream size : 29.8 MiB (3%)

Bellator.133.720p.HDTV.x264-KYR.mkv

General
Unique ID : 230528161585260698681880732313795880255 (0xAD6E1BE3A22349C184A648A0B746E53F)
Complete name : E:\uTorrent.Temp\Temp\Bellator 133. Shlemenko vs. Manhoef (Full Event) [HD 720p, ENG]\Bellator.133.720p.HDTV.x264-KYR.mkv
Format : Matroska
Format version : Version 4 / Version 2
File size : 2.97 GiB
Duration : 1h 38mn
Overall bit rate : 4 337 Kbps
Encoded date : UTC 2015-02-14 14:15:32
Writing application : mkvmerge v7.1.0 ('Good Love') 64bit built on Jul 27 2014 13:06:55
Writing library : libebml v1.3.0 + libmatroska v1.4.1
DURATION : 01:38:02.720000000
NUMBER_OF_FRAMES : 183835
NUMBER_OF_BYTES : 282370560
_STATISTICS_WRITING_APP : mkvmerge v7.1.0 ('Good Love') 64bit built on Jul 27 2014 13:06:55
_STATISTICS_WRITING_DATE_UT : 2015-02-14 14:15:32
_STATISTICS_TAGS : BPS DURATION NUMBER_OF_FRAMES NUMBER_OF_BYTES
Video
ID : 1
Format : AVC
Format/Info : Advanced Video Codec
Format profile : High@L4.1
Format settings, CABAC : Yes
Format settings, ReFrames : 5 frames
Codec ID : V_MPEG4/ISO/AVC
Duration : 1h 38mn
Bit rate : 3 867 Kbps
Width : 1 280 pixels
Height : 720 pixels
Display aspect ratio : 16:9
Frame rate mode : Constant
Frame rate : 29.970 fps
Color space : YUV
Chroma subsampling : 4:2:0
Bit depth : 8 bits
Scan type : Progressive
Bits/(Pixel*Frame) : 0.140
Stream size : 2.65 GiB (89%)
Writing library : x264 core 144 r2525 40bb568
Encoding settings : cabac=1 / ref=5 / deblock=1:0:0 / analyse=0x3:0x113 / me=umh / subme=8 / psy=1 / psy_rd=1.00:0.00 / mixed_ref=1 / me_range=16 / chroma_me=1 / trellis=1 / 8x8dct=1 / cqm=0 / deadzone=21,11 / fast_pskip=1 / chroma_qp_offset=-2 / threads=18 / lookahead_threads=3 / sliced_threads=0 / nr=0 / decimate=1 / interlaced=0 / bluray_compat=0 / constrained_intra=0 / bframes=3 / b_pyramid=2 / b_adapt=2 / b_bias=0 / direct=3 / weightb=1 / open_gop=0 / weightp=2 / keyint=250 / keyint_min=25 / scenecut=40 / intra_refresh=0 / rc_lookahead=50 / rc=crf / mbtree=1 / crf=23.0 / qcomp=0.60 / qpmin=0 / qpmax=69 / qpstep=4 / ip_ratio=1.40 / aq=1:1.00
Language : English
Default : Yes
Forced : No
Matrix coefficients : BT.709
Color range : Limited
DURATION : 01:38:02.777000000
NUMBER_OF_FRAMES : 176307
NUMBER_OF_BYTES : 2905198183
_STATISTICS_WRITING_APP : mkvmerge v7.1.0 ('Good Love') 64bit built on Jul 27 2014 13:06:55
_STATISTICS_WRITING_DATE_UT : 2015-02-14 14:15:32
_STATISTICS_TAGS : BPS DURATION NUMBER_OF_FRAMES NUMBER_OF_BYTES
Audio
ID : 2
Format : AC-3
Format/Info : Audio Coding 3
Mode extension : CM (complete main)
Format settings, Endianness : Big
Codec ID : A_AC3
Duration : 1h 38mn
Bit rate mode : Constant
Bit rate : 384 Kbps
Channel(s) : 2 channels
Channel positions : Front: L R
Sampling rate : 48.0 KHz
Bit depth : 16 bits
Compression mode : Lossy
Delay relative to video : 24ms
Stream size : 269 MiB (9%)
Default : Yes
Forced : No

Кард

Preliminary Card:
-Main Card:
[Профиль] [ЛС]

plarin ®

Пол: Мужской

Стаж: 2 года 4 месяца

Сообщений: 602

Откуда: Мадрид

Создавать темы 14-Фев-2015 19:58 (спустя 2 часа 37 минут)

[Цитировать]

Раздача обновлена. Добавлены прилимы.
[Профиль] [ЛС]
Показать сообщения:    
Ответить на тему

Текущее время: 26-Апр 14:53

Часовой пояс: UTC + 1



Вы не можете начинать темы
Вы не можете отвечать на сообщения
Вы не можете редактировать свои сообщения
Вы не можете удалять свои сообщения
Вы не можете голосовать в опросах
Вы не можете прикреплять файлы к сообщениям
Вы не можете скачивать файлы