ONE Championship 43 Kingdom of Champions (FULL EVENT) [27.05.2016 540p CHN] WEB-DL-Rpunk :: Fight Tracker Russia

ONE Championship 43 Kingdom of Champions (FULL EVENT) [27.05.2016 540p CHN] WEB-DL-Rpunk

Ответить на тему
 
Автор Сообщение

Romapunk ®

Пол: Мужской

Стаж: 2 года 5 месяцев

Сообщений: 518

Откуда: Вологодская область

Создавать темы 27-Май-2016 23:05

[Цитировать]


Описание: ONE Championship 43 Kingdom of Champions
Дата проведения: 27/05/2016
Место проведения: Impact Arena, Muang Thong Thani | Amphoe Pak Kret, Nonthaburi Province, Thailand
Язык комментариев: Chinese

Fight card

Video Info

General
Complete name : ONE Championship 43 Kingdom of Champions (FULL EVENT) [27.05.2016 540p CHN] WEB-DL-Rpunk.mp4
Format : MPEG-4
Format profile : Base Media
Codec ID : isom
File size : 1.90 GiB
Duration : 3h 24mn
Overall bit rate mode : Variable
Overall bit rate : 1 331 Kbps
Writing application : Lavf56.15.102
Video
ID : 1
Format : AVC
Format/Info : Advanced Video Codec
Format profile : High@L3.1
Format settings, CABAC : Yes
Format settings, ReFrames : 2 frames
Codec ID : avc1
Codec ID/Info : Advanced Video Coding
Duration : 3h 24mn
Bit rate mode : Variable
Bit rate : 1 193 Kbps
Maximum bit rate : 2 000 Kbps
Width : 960 pixels
Height : 540 pixels
Display aspect ratio : 16:9
Frame rate mode : Constant
Frame rate : 25.000 fps
Color space : YUV
Chroma subsampling : 4:2:0
Bit depth : 8 bits
Scan type : Progressive
Bits/(Pixel*Frame) : 0.092
Stream size : 1.71 GiB (90%)
Audio
ID : 2
Format : AAC
Format/Info : Advanced Audio Codec
Format profile : LC
Codec ID : 40
Duration : 3h 24mn
Bit rate mode : Variable
Bit rate : 125 Kbps
Maximum bit rate : 134 Kbps
Channel(s) : 2 channels
Channel positions : Front: L R
Sampling rate : 48.0 KHz
Compression mode : Lossy
Stream size : 184 MiB (9%)

Screenshots



[Профиль] [ЛС]

bgarretts

Пол: Не указан

Стаж: 11 месяцев 26 дней

Сообщений: 1

Создавать темы 29-Май-2016 09:46 (спустя 1 день 10 часов)

[Цитировать]

Timofey Nastyukhin is an absolute beast. Best two KOs in One Championship history. Great quality. Thank you.
[Профиль] [ЛС]
Показать сообщения:    
Ответить на тему

Текущее время: 23-Май 17:50

Часовой пояс: UTC + 1



Вы не можете начинать темы
Вы не можете отвечать на сообщения
Вы не можете редактировать свои сообщения
Вы не можете удалять свои сообщения
Вы не можете голосовать в опросах
Вы не можете прикреплять файлы к сообщениям
Вы не можете скачивать файлы