ShoXC 7 Hamman vs. Suganuma [15.08.2008 720p ENG] WEB-DL-Rpunk

Ответить на тему
 
Автор Сообщение

Romapunk ®

Пол: Мужской

Стаж: 2 года 6 месяцев

Сообщений: 527

Откуда: Вологодская область

Создавать темы 11-Май-2016 17:09

[Цитировать]


Описание: ShoXC 7 Hamman vs. Suganuma
Дата проведения: 15/08/2008
Место проведения: Table Mountain Casino in Friant, California/USA
Язык комментариев: English

Fight card

Jared Hamman vs Po'ai Suganuma
Sammy Morgan vs Fabricio Camoes
Jamie Fletcher vs Cyrille Diabate
Rosi Sexton vs Debi Purcell
Ray Lizama vs Keith Berry

Video Info

General
Complete name : ShoXC 7 Hamman vs. Suganuma [15.08.2008 720p ENG] WEB-DL-Rpunk.mp4
Format : MPEG-4
Format profile : Base Media
Codec ID : isom
File size : 1.07 GiB
Duration : 53mn 10s
Overall bit rate : 2 887 Kbps
Writing application : Lavf56.40.101
Video
ID : 1
Format : AVC
Format/Info : Advanced Video Codec
Format profile : Main@L3.2
Format settings, CABAC : Yes
Format settings, ReFrames : 3 frames
Codec ID : avc1
Codec ID/Info : Advanced Video Coding
Duration : 53mn 10s
Bit rate : 2 777 Kbps
Width : 1 280 pixels
Height : 720 pixels
Display aspect ratio : 16:9
Frame rate mode : Constant
Frame rate : 29.970 fps
Color space : YUV
Chroma subsampling : 4:2:0
Bit depth : 8 bits
Scan type : Progressive
Bits/(Pixel*Frame) : 0.101
Stream size : 1.03 GiB (96%)
Audio
ID : 2
Format : AAC
Format/Info : Advanced Audio Codec
Format profile : LC
Codec ID : 40
Duration : 53mn 10s
Bit rate mode : Constant
Bit rate : 100 Kbps
Channel(s) : 2 channels
Channel positions : Front: L R
Sampling rate : 44.1 KHz
Compression mode : Lossy
Stream size : 38.0 MiB (3%)
[Профиль] [ЛС]
Показать сообщения:    
Ответить на тему

Текущее время: 29-Июн 13:26

Часовой пояс: UTC + 1



Вы не можете начинать темы
Вы не можете отвечать на сообщения
Вы не можете редактировать свои сообщения
Вы не можете удалять свои сообщения
Вы не можете голосовать в опросах
Вы не можете прикреплять файлы к сообщениям
Вы не можете скачивать файлы