WBK-11 [2016.03.05 352p K-1&MMA CHN] WEB-DL-Rpunk

Ответить на тему
 
Автор Сообщение

Romapunk ®

Пол: Мужской

Стаж: 2 года 6 месяцев

Сообщений: 527

Откуда: Вологодская область

Создавать темы 27-Апр-2016 15:09

[Цитировать]


Описание: WBK-11
Дата проведения: 05/03/2016
Место проведения: China
Язык комментариев: Chinese

Fight card



Video Info

General
Complete name : WBK-11 [2016.03.05 352p K-1&MMA CHN] WEB-DL-Rpunk.mp4
Format : MPEG-4
Format profile : Base Media
Codec ID : isom
File size : 559 MiB
Duration : 2h 35mn
Overall bit rate mode : Variable
Overall bit rate : 502 Kbps
Encoded date : UTC 2016-03-05 17:35:06
Tagged date : UTC 2016-03-05 17:35:06
Video
ID : 1
Format : AVC
Format/Info : Advanced Video Codec
Format profile : Main@L3
Format settings, CABAC : Yes
Format settings, ReFrames : 4 frames
Codec ID : avc1
Codec ID/Info : Advanced Video Coding
Duration : 2h 35mn
Source duration : 2h 35mn
Bit rate : 449 Kbps
Width : 480 pixels
Height : 352 pixels
Display aspect ratio : 4:3
Frame rate mode : Constant
Frame rate : 25.000 fps
Color space : YUV
Chroma subsampling : 4:2:0
Bit depth : 8 bits
Scan type : Progressive
Bits/(Pixel*Frame) : 0.106
Stream size : 500 MiB (90%)
Source stream size : 500 MiB (90%)
Audio
ID : 2
Format : AAC
Format/Info : Advanced Audio Codec
Format profile : HE-AAC / LC
Codec ID : 40
Duration : 2h 35mn
Source duration : 2h 35mn
Bit rate mode : Variable
Bit rate : 48.0 Kbps
Channel(s) : 2 channels
Channel positions : Front: L R
Sampling rate : 48.0 KHz / 24.0 KHz
Compression mode : Lossy
Stream size : 53.4 MiB (10%)
Source stream size : 53.4 MiB (10%)
[Профиль] [ЛС]
Показать сообщения:    
Ответить на тему

Текущее время: 27-Июн 08:06

Часовой пояс: UTC + 1



Вы не можете начинать темы
Вы не можете отвечать на сообщения
Вы не можете редактировать свои сообщения
Вы не можете удалять свои сообщения
Вы не можете голосовать в опросах
Вы не можете прикреплять файлы к сообщениям
Вы не можете скачивать файлы