Cage.Warriors.75.WEBRip.x264-ThS :: Fight Tracker Russia

Cage.Warriors.75.WEBRip.x264-ThS

Ответить на тему
 
Автор Сообщение

Romapunk ®

Пол: Мужской

Стаж: 2 года

Сообщений: 444

Откуда: Вологодская область

Создавать темы 16-Апр-2016 00:44

[Цитировать]


Описание: Cage.Warriors.75.WEBRip.x264-ThS
Дата проведения: 15/04/2016
Место проведения: London/England
Язык комментариев: English

Fight card

Jack Hermansson vs. Alan Carlos For middleweight title
Ashleigh Grimshaw vs. Paddy Pimblett
Scott Clist vs. Brad Wheeler
James Hurrell vs. Darren Stewart
Alfie Davis vs. Terry Doyle
Chris Fishgold vs. Jordan Miller
Pelu Adetola vs. Gyorgy Dolog
Oliver Battell vs. Rob Scott

Video Info

General
Format : MPEG-4
Format profile : Base Media / Version 2
Codec ID : mp42 (mp42/isom)
File size : 393 MiB
Duration : 2h 3mn
Overall bit rate mode : Variable
Overall bit rate : 446 Kbps
Video
Format : AVC
Format/Info : Advanced Video Codec
Format profile : High@L3
Format settings, CABAC : Yes
Format settings, ReFrames : 4 frames
Codec ID : avc1
Codec ID/Info : Advanced Video Coding
Duration : 2h 3mn
Bit rate : 311 Kbps
Width : 640 pixels
Height : 360 pixels
Display aspect ratio : 16:9
Frame rate mode : Variable
Frame rate : 25.000 fps
Minimum frame rate : 0.810 fps
Maximum frame rate : 30.303 fps
Color space : YUV
Chroma subsampling : 4:2:0
Bit depth : 8 bits
Scan type : Progressive
Bits/(Pixel*Frame) : 0.054
Stream size : 274 MiB (70%)
Audio
Format : AAC
Format/Info : Advanced Audio Codec
Format profile : LC
Codec ID : 40
Duration : 2h 3mn
Source duration : 2h 3mn
Bit rate mode : Variable
Bit rate : 128 Kbps
Channel(s) : 2 channels
Channel positions : Front: L R
Sampling rate : 44.1 KHz
Frame rate : 43.066 fps (1024 spf)
Compression mode : Lossy
Stream size : 113 MiB (29%)
Source stream size : 113 MiB (29%)
[Профиль] [ЛС]
Показать сообщения:    
Ответить на тему

Текущее время: 20-Янв 04:43

Часовой пояс: UTC + 1



Вы не можете начинать темы
Вы не можете отвечать на сообщения
Вы не можете редактировать свои сообщения
Вы не можете удалять свои сообщения
Вы не можете голосовать в опросах
Вы не можете прикреплять файлы к сообщениям
Вы не можете скачивать файлы