ONE Championship 41 Global Rivals.Full Event [15.04.2016 540p ENG]-WEB-DL-Rpunk :: Fight Tracker Russia

ONE Championship 41 Global Rivals.Full Event [15.04.2016 540p ENG]-WEB-DL-Rpunk

Ответить на тему
 
Автор Сообщение

Romapunk ®

Пол: Мужской

Стаж: 2 года 3 месяца

Сообщений: 474

Откуда: Вологодская область

Создавать темы 15-Апр-2016 23:53

[Цитировать]


Описание: ONE Championship 41 Global Rivals.Full Event
Дата проведения: 15/04/2016
Место проведения: Mall of Asia Arena, Manila/Philippines
Язык комментариев: English

Fight card

Video Info

General
Complete name : ONE Championship 41 Global Rivals.Full Event [15.04.2016 540p ENG]-WEB-DL-Rpunk.mp4
Format : MPEG-4
Format profile : Base Media
Codec ID : isom
File size : 2.74 GiB
Duration : 4h 53mn
Overall bit rate mode : Variable
Overall bit rate : 1 335 Kbps
Writing application : Lavf56.15.102
Video
ID : 1
Format : AVC
Format/Info : Advanced Video Codec
Format profile : High@L3.1
Format settings, CABAC : Yes
Format settings, ReFrames : 2 frames
Codec ID : avc1
Codec ID/Info : Advanced Video Coding
Duration : 4h 53mn
Bit rate mode : Variable
Bit rate : 1 197 Kbps
Maximum bit rate : 2 000 Kbps
Width : 960 pixels
Height : 540 pixels
Display aspect ratio : 16:9
Frame rate mode : Constant
Frame rate : 25.000 fps
Color space : YUV
Chroma subsampling : 4:2:0
Bit depth : 8 bits
Scan type : Progressive
Bits/(Pixel*Frame) : 0.092
Stream size : 2.45 GiB (90%)
Audio
ID : 2
Format : AAC
Format/Info : Advanced Audio Codec
Format profile : LC
Codec ID : 40
Duration : 4h 53mn
Bit rate mode : Variable
Bit rate : 125 Kbps
Maximum bit rate : 128 Kbps
Channel(s) : 2 channels
Channel positions : Front: L R
Sampling rate : 48.0 KHz
Compression mode : Lossy
Stream size : 263 MiB (9%)

Screenshots




[Профиль] [ЛС]
Показать сообщения:    
Ответить на тему

Текущее время: 25-Мар 08:48

Часовой пояс: UTC + 1



Вы не можете начинать темы
Вы не можете отвечать на сообщения
Вы не можете редактировать свои сообщения
Вы не можете удалять свои сообщения
Вы не можете голосовать в опросах
Вы не можете прикреплять файлы к сообщениям
Вы не можете скачивать файлы