Evangelista Cyborg Santos MMA Training Drills. all in One dvd

Ответить на тему
 
Автор Сообщение

ujazzz ®

Пол: Мужской

Стаж: 3 года 7 месяца

Сообщений: 904

Откуда: Syberia

Создавать темы 04-Фев-2016 15:46

[Цитировать]


Описание: Evangelista Cyborg Santos MMA Training Drills. all in One dvd
Год выпуска: 2012
Обучающее видео от Evangelista "Cyborg" Santos
Качество видео: DVD5
Язык: Английский

Info

Формат : MPEG-PS
Размер файла : 979 Мбайт
Продолжительность : 52 м.
Режим общего битрейта : Переменный
Общий поток : 2613 Кбит/сек
Видео
Идентификатор : 224 (0xE0)
Формат : MPEG Video
Версия формата : Version 2
Профиль формата : Main@Main
Параметр BVOP формата : Да
Параметр матрицы формата : По умолчанию
Параметр GOP формата : M=3, N=15
Продолжительность : 52 м.
Вид битрейта : Переменный
Битрейт : 2369 Кбит/сек
Максимальный битрейт : 9608 Кбит/сек
Ширина : 720 пикселей
Высота : 480 пикселей
Соотношение сторон : 16:9
Частота кадров : 29,970 кадров/сек
Стандарт вещания : NTSC
Цветовое пространство : YUV
Субдискретизация насыщенности : 4:2:0
Битовая глубина : 8 бит
Тип развёртки : Прогрессивная
Метод сжатия : С потерями
Бит/(Пиксели*Кадры) : 0.229
Временной код первого кадра : 00:00:00:00
Оригинал временного кода : Group of pictures header
Размер потока : 888 Мбайт (91%)
Аудио
Идентификатор : 189 (0xBD)-128 (0x80)
Формат : AC-3
Формат/Информация : Audio Coding 3
Расширение режима : CM (complete main)
Параметр Endianness формата : Big
Режим смешивания : DVD-Video
Продолжительность : 52 м.
Вид битрейта : Постоянный
Битрейт : 192 Кбит/сек
Каналы : 2 канала
Расположение каналов : Front: L R
Частота : 48,0 КГц
Битовая глубина : 16 бит
Метод сжатия : С потерями
Размер потока : 71,9 Мбайт (7%)

[Профиль] [ЛС]

wanderleisilva

Пол: Не указан

Стаж: 2 месяца 19 дня

Сообщений: 1

Создавать темы 27-Авг-2018 01:38 (спустя 2 года 6 месяца)

[Цитировать]

4819Evangelista Cyborg Santos MMA Training Drills. all in One dvd
[Профиль] [ЛС]
Показать сообщения:    
Ответить на тему

Текущее время: 15-Ноя 06:50

Часовой пояс: UTC + 1



Вы не можете начинать темы
Вы не можете отвечать на сообщения
Вы не можете редактировать свои сообщения
Вы не можете удалять свои сообщения
Вы не можете голосовать в опросах
Вы не можете прикреплять файлы к сообщениям
Вы не можете скачивать файлы