UFC 193: Rousey vs. Holm (Main Card) [14.11.2015, MMA, HDTV 1080p, ENG] :: Fight Tracker Russia

UFC 193: Rousey vs. Holm (Main Card) [14.11.2015, MMA, HDTV 1080p, ENG]

Ответить на тему
 
Автор Сообщение

Garik50cent ®

Пол: Не указан

Стаж: 2 года 4 месяца

Сообщений: 5

Создавать темы 24-Ноя-2015 13:22

[Цитировать]

UFC 193: Rousey vs. Holm (Main Card) - Full HD-Описание:
Австралия. Мельбурн. 14 ноября.
В ночь с субботы на воскресенье в австралийском Мельбурне состоится турнир UFC 193, «хэдлайнерами» которого станут сразу две чемпионки главного ММА-промоушна мира — американка Ронда Роузи и полячка Джоанна Енджейчик.

Запись с т/к "BT Sport 2 HD"

КАРД (список боёв)

[Women's Bantamweight] Ronda Rousey (c) vs. Holly Holm *For the UFC Women's Bantamweight Championship
[Women's Strawweight] Joanna Jędrzejczyk (c) vs. Valérie Létourneau *For the UFC Women's Strawweight Championship
[Heavyweight] Mark Hunt vs. Antônio Silva
[Middleweight] Robert Whittaker vs. Uriah Hall
[Heavyweight] Stefan Struve vs. Jared Rosholt
Качество видео: HDTV
Язык: Английский
Продолжительность: 2:56:47

Тех.характеристики

Полное имя : UFC.193.1080p.HDTV.BT.Sport.2.HD.x264-champions.mkv
Формат : Matroska
Версия формата : Version 4 / Version 2
Размер файла : 12,2 Гбайт
Общий поток : 9857 Кбит/сек
Дата кодирования : UTC 2010-02-22 21:41:29
Программа кодирования : no_variable_data
Библиотека кодирования : no_variable_data
Видео
Идентификатор : 1
Формат : AVC
Формат/Информация : Advanced Video Codec
Профиль формата : High@L4.1
Параметр CABAC формата : Да
Параметр ReFrames формата : 4 кадра
Идентификатор кодека : V_MPEG4/ISO/AVC
Продолжительность : 2 ч. 56 м.
Битрейт : 9469 Кбит/сек
Ширина : 1920 пикселей
Высота : 1080 пикселей
Соотношение сторон : 16:9
Режим частоты кадров : Постоянный
Частота кадров : 50,000 кадров/сек
Цветовое пространство : YUV
Субдискретизация насыщенности : 4:2:0
Битовая глубина : 8 бит
Тип развёртки : Прогрессивная
Бит/(Пиксели*Кадры) : 0.091
Размер потока : 11,7 Гбайт (96%)
Библиотека кодирования : x264 core 148 r2597 e86f3a1
Настройки программы : cabac=1 / ref=4 / deblock=1:0:0 / analyse=0x3:0x113 / me=umh / subme=8 / psy=1 / psy_rd=1.00:0.00 / mixed_ref=1 / me_range=16 / chroma_me=1 / trellis=1 / 8x8dct=1 / cqm=0 / deadzone=21,11 / fast_pskip=1 / chroma_qp_offset=-2 / threads=6 / lookahead_threads=1 / sliced_threads=0 / nr=0 / decimate=1 / interlaced=0 / bluray_compat=0 / constrained_intra=0 / bframes=3 / b_pyramid=2 / b_adapt=2 / b_bias=0 / direct=3 / weightb=1 / open_gop=0 / weightp=2 / keyint=250 / keyint_min=25 / scenecut=40 / intra_refresh=0 / rc_lookahead=50 / rc=crf / mbtree=1 / crf=22.0 / qcomp=0.60 / qpmin=0 / qpmax=69 / qpstep=4 / ip_ratio=1.40 / aq=1:1.00
Язык : English
Default : Да
Forced : Нет
Коэффициенты матрицы : BT.709
Аудио
Идентификатор : 2
Формат : AC-3
Формат/Информация : Audio Coding 3
Расширение режима : CM (complete main)
Параметр Endianness формата : Big
Идентификатор кодека : A_AC3
Продолжительность : 2 ч. 56 м.
Вид битрейта : Постоянный
Битрейт : 192 Кбит/сек
Каналы : 2 канала
Расположение каналов : Front: L R
Частота : 48,0 КГц
Битовая глубина : 16 бит
Метод сжатия : С потерями
Размер потока : 243 Мбайт (2%)
Default : Да
Forced : Нет

Скриншоты



Последний раз редактировалось: Garik50cent (2015-11-24 13:54), всего редактировалось 1 раз
[Профиль] [ЛС]

zorro

Пол: Женский

Стаж: 2 года 2 месяца

Сообщений: 1636

Откуда: アラスカ、ロシア

Создавать темы 24-Ноя-2015 13:36 (спустя 13 минут)

[Цитировать]

спасибо
[Профиль] [ЛС]

Superserafim

Пол: Мужской

Стаж: 2 года 4 месяца

Сообщений: 2124

Создавать темы 24-Ноя-2015 19:13 (спустя 5 часов)

[Цитировать]

С почином! Спасибо за раздачу!
[Профиль] [ЛС]

Garik50cent ®

Пол: Не указан

Стаж: 2 года 4 месяца

Сообщений: 5

Создавать темы 24-Ноя-2015 20:30 (спустя 1 час 17 минут)

[Цитировать]

3755спасибо
3758С почином! Спасибо за раздачу!
Спасибо вам за отличный трекер и эксклюзивные записи!
[Профиль] [ЛС]
Показать сообщения:    
Ответить на тему

Текущее время: 24-Апр 02:33

Часовой пояс: UTC + 1



Вы не можете начинать темы
Вы не можете отвечать на сообщения
Вы не можете редактировать свои сообщения
Вы не можете удалять свои сообщения
Вы не можете голосовать в опросах
Вы не можете прикреплять файлы к сообщениям
Вы не можете скачивать файлы