1996-02-16.UFC.8.DVD-9.Eng :: Fight Tracker Russia

1996-02-16.UFC.8.DVD-9.Eng

Ответить на тему
 
Автор Сообщение

ujazzz ®

Пол: Мужской

Стаж: 1 год 9 месяцев

Сообщений: 544

Откуда: Syberia

Создавать темы 23-Ноя-2015 17:50

[Цитировать]


UFC 8 - DAVID VS. GOLIATH
Качество видео: DVD9
Язык: Английский
Место проведения турнира:Ruben Rodriguez Coliseum, San Juan, Puerto Rico, Puerto Rico
Дата турнира:16.02.1996

Кард

Don Frye vs Thomas Ramirez
Paul Varelans vs Joe Moreira
Jerry Bohlander vs Scott Ferrozzo
Gary Goodridge vs Paul Herrera
Don Frye vs Sam Adkins
Gary Goodridge vs Jerry Bohlander
Ken Shamrock vs Kimo Leopoldo
Don Frye vs Gary Goodridge

Info

Видео
Идентификатор : 224 (0xE0)
Формат : MPEG Video
Версия формата : Version 2
Профиль формата : Main@Main
Параметр BVOP формата : Да
Параметр матрицы формата : Выборочная
Параметр GOP формата : M=3, N=12
Format_Settings_PictureStructure : Frame
Продолжительность : 22 м.
Вид битрейта : Переменный
Битрейт : 5944 Кбит/сек
Максимальный битрейт : 9800 Кбит/сек
Ширина : 720 пикселей
Высота : 576 пикселей
Соотношение сторон : 4:3
Частота кадров : 25,000 кадров/сек
Стандарт вещания : PAL
Цветовое пространство : YUV
Субдискретизация насыщенности : 4:2:0
Битовая глубина : 8 бит
Тип развёртки : Чересстрочная
Порядок развёртки : Верхнее поле первое
Метод сжатия : С потерями
Бит/(Пиксели*Кадры) : 0.573
Размер потока : 972 Мбайт (95%)
Аудио
Идентификатор : 189 (0xBD)-128 (0x80)
Формат : AC-3
Формат/Информация : Audio Coding 3
Расширение режима : CM (complete main)
Параметр Endianness формата : Big
Режим смешивания : DVD-Video
Продолжительность : 6 с. 528 мс.
Вид битрейта : Постоянный
Битрейт : 192 Кбит/сек
Каналы : 2 канала
Расположение каналов : Front: L R
Частота : 48,0 КГц
Битовая глубина : 16 бит
Метод сжатия : С потерями
Размер потока : 153 Кбайт (0%)
[Профиль] [ЛС]
Показать сообщения:    
Ответить на тему

Текущее время: 24-Янв 12:13

Часовой пояс: UTC + 1



Вы не можете начинать темы
Вы не можете отвечать на сообщения
Вы не можете редактировать свои сообщения
Вы не можете удалять свои сообщения
Вы не можете голосовать в опросах
Вы не можете прикреплять файлы к сообщениям
Вы не можете скачивать файлы