ONE Championship 33 Pride of Lions [13.11.2015 MPEG-TS 576p RU]-Rpunk :: Fight Tracker Russia

ONE Championship 33 Pride of Lions [13.11.2015 MPEG-TS 576p RU]-Rpunk

Ответить на тему
 
Автор Сообщение

Romapunk ®

Пол: Мужской

Стаж: 2 года 1 месяц

Сообщений: 446

Откуда: Вологодская область

Создавать темы 18-Ноя-2015 17:15

[Цитировать]


Описание: ONE Championship 33 Pride of Lions
Дата проведения: 13/11/2015
Место проведения: Singapore
Язык комментариев: Russian (Boets Channel)
Продолжительность: 03:00:00
Примечание : Поток не стабилен

Video Info

General
ID : 64643 (0xFC83)
Complete name : ONE Championship 33 Pride of Lions [13.11.2015 MPEG-TS 576p]-Rpunk.ts
Format : MPEG-TS
File size : 1.98 GiB
Duration : 2h 59mn
Overall bit rate mode : Variable
Overall bit rate : 1 573 Kbps
Video
ID : 69 (0x45)
Menu ID : 1 (0x1)
Format : AVC
Format/Info : Advanced Video Codec
Format profile : High@L3
Format settings, CABAC : Yes
Format settings, ReFrames : 4 frames
Codec ID : 27
Duration : 2h 59mn
Bit rate : 1 372 Kbps
Width : 720 pixels
Height : 576 pixels
Display aspect ratio : 4:3
Frame rate : 25.000 fps
Standard : PAL
Color space : YUV
Chroma subsampling : 4:2:0
Bit depth : 8 bits
Scan type : Progressive
Bits/(Pixel*Frame) : 0.132
Stream size : 1.72 GiB (87%)
Writing library : x264 core 124
Audio
ID : 68 (0x44)
Menu ID : 1 (0x1)
Format : MPEG Audio
Format version : Version 1
Format profile : Layer 3
Mode : Joint stereo
Mode extension : MS Stereo
Codec ID : 3
Duration : 2h 59mn
Bit rate mode : Constant
Bit rate : 128 Kbps
Channel(s) : 2 channels
Sampling rate : 44.1 KHz
Compression mode : Lossy
Delay relative to video : -25ms
Stream size : 165 MiB (8%)
[Профиль] [ЛС]
Показать сообщения:    
Ответить на тему

Текущее время: 23-Янв 21:55

Часовой пояс: UTC + 1



Вы не можете начинать темы
Вы не можете отвечать на сообщения
Вы не можете редактировать свои сообщения
Вы не можете удалять свои сообщения
Вы не можете голосовать в опросах
Вы не можете прикреплять файлы к сообщениям
Вы не можете скачивать файлы