ACB 25 – «Young Eagles» 3.[07.11.2015 MPEG-TS 576p RU]-Rpunk :: Fight Tracker Russia

ACB 25 – «Young Eagles» 3.[07.11.2015 MPEG-TS 576p RU]-Rpunk

Ответить на тему
 
Автор Сообщение

Romapunk ®

Пол: Мужской

Стаж: 2 года 3 месяца

Сообщений: 473

Откуда: Вологодская область

Создавать темы 18-Ноя-2015 17:06

[Цитировать]


Описание: ACB 25 – «Young Eagles» 3
Дата проведения: 07/11/2015
Место проведения: Grozny/Russia
Язык комментариев: Russian (Boets Channel)
Продолжительность: 04:50:00

Fight card

16. (70 кг) Магомед Раисов (2-0, БК «Беркут», Россия) vs Георги «Станчев» Стоянов (19-8, Болгария)
15. (84 кг) Азамат Амагов (7-0, БК «Беркут», Россия) vs Панагиотис Струмполис (5-4, «Gracie Barra», Греция)
14. (70 кг) Шамсанур Магомадов (2-0, БК «Беркут», Россия) vs Рим Хазиахметов (2-0, БК «Колизей», Тольятти)
13. (66 кг) Артур Кащеев (7-6, БК «Карс», АБИ «Честь», Харьков, Украина) vs Алихан Сулейманов (2-1, БК «Беркут», Россия)
12. (77 кг) Арсен Тенгизов (2-0, БК «Аллигатор», Кабардино-Балкария) vs Ислам Яшаев (4-4, БК «Беркут», Россия)
11. (70 кг) Роман Огульчанский (2-1, Донецк) vs Ильяс Хайпаев (0-1, БК «Беркут», Россия)
10. (61 кг) Букланов Владимир (2-1, Донецк) vs Нашхо Галаев (2-2, БК «Беркут», Россия)
9. (77 кг) Азизбек Шарипов (2-0, «Kuznya & AP promotion», Санкт- Петербург) vs Ильяс Якубов (0-1, БК «Беркут», Россия)
8. (+93) Виктор Казаков (1-1, «Mix-Fight Promotion», Украина) vs Ханиф Мирзамагомедов (1-2, БК «Беркут», Москва)
7. (70кг) Урматбек Уулу Полотбек (0-0, БК «Айкол», Москва) vs Бай-Али Шаипов (0-0, БК «Беркут», Россия)
6. (66 кг) Павел Репетюк (0-0, «YakovlevTeam & AP promotion», Санкт- Петербург) vs Чингисхан Дудаев (0-1, БК «Беркут», Россия)
5. (93 кг) Богдан Булах (2-8, «Mix-Fight Promotion», Крым) vs Расул Сайтхожаев (0-0, БК «Беркут», Россия)
4. (70 кг) Резуан Пшихачев (0-0, БК «Аллигатор», Кабардино-Балкария) vs Джохар Дураев (0-0, БК «Беркут», Россия)
3. (57 кг) Исраил Рамазанов (0-0, «Max-Fighter», Узбекистан) vs Алисхан Чадаев (0-0, БК «Беркут», Россия)
2. (66 кг) Берик Султангалиев (2-3, КРБ «Айсберг», Волгоград) vs Джабир Вазирханов (0-0, БК «Беркут», Россия)
1. (57кг) Астемир Гукежев (0-0, БК «Аллигатор», Кабардино-Балкария) vs Мовсар Зекиев (0-0, БК «Беркут», Россия)

Video Info

General
ID : 0 (0x0)
Complete name : ACB 25 – «Young Eagles» 3.[07.11.2015 MPEG-TS 576p RU]-Rpunk.ts
Format : MPEG-TS
File size : 3.53 GiB
Duration : 5h 8mn
Overall bit rate mode : Variable
Overall bit rate : 1 634 Kbps
Video
ID : 301 (0x12D)
Menu ID : 1 (0x1)
Format : AVC
Format/Info : Advanced Video Codec
Format profile : High@L3
Format settings, CABAC : Yes
Format settings, ReFrames : 4 frames
Codec ID : 27
Duration : 5h 8mn
Bit rate : 1 372 Kbps
Width : 720 pixels
Height : 576 pixels
Display aspect ratio : 4:3
Frame rate : 25.000 fps
Standard : PAL
Color space : YUV
Chroma subsampling : 4:2:0
Bit depth : 8 bits
Scan type : Progressive
Bits/(Pixel*Frame) : 0.132
Stream size : 3.07 GiB (87%)
Writing library : x264 core 124
Audio
ID : 302 (0x12E)
Menu ID : 1 (0x1)
Format : MPEG Audio
Format version : Version 1
Format profile : Layer 3
Mode : Joint stereo
Mode extension : MS Stereo
Codec ID : 3
Duration : 5h 8mn
Bit rate mode : Constant
Bit rate : 128 Kbps
Channel(s) : 2 channels
Sampling rate : 44.1 KHz
Compression mode : Lossy
Delay relative to video : -1s 0ms
Stream size : 283 MiB (8%)
[Профиль] [ЛС]
Показать сообщения:    
Ответить на тему

Текущее время: 23-Мар 15:17

Часовой пояс: UTC + 1



Вы не можете начинать темы
Вы не можете отвечать на сообщения
Вы не можете редактировать свои сообщения
Вы не можете удалять свои сообщения
Вы не можете голосовать в опросах
Вы не можете прикреплять файлы к сообщениям
Вы не можете скачивать файлы