ACB KB 4 [13.11.2015 MPEG-TS 576p RU] :: Fight Tracker Russia

ACB KB 4 [13.11.2015 MPEG-TS 576p RU]

Ответить на тему
 
Автор Сообщение

Romapunk ®

Пол: Мужской

Стаж: 2 года 5 месяцев

Сообщений: 521

Откуда: Вологодская область

Создавать темы 18-Ноя-2015 16:54

[Цитировать]


Описание:
ACB Kickboxing 4
Дата проведения: 13/11/2015
Место проведения: Perm/Russia
Язык комментариев: Russian
Продолжительность: 03:25:00

Fight card

▼ACB KB-4/ GRAND PRIX/ FINAL 70 kg
Сайфуллах Хамбахадов (Россия, Беркут) vs Казбек Зубайраев (Россия, Ахмат)
▼ACB KB-4/ GRAND PRIX/ FINAL 61 kg
Якуб Берсанукаев (Россия, Беркут) vs Александр Коновалов (Сербия)
▼ACB KB-4/ GRAND PRIX/ SUPERFIGHT 70 kg
Максим Смирнов (Россия, Пермь) vs Росан Бухареб (Дания)
▼ACB KB-4/ GRAND PRIX/ SUPERFIGHT 77 kg
Александр Стецуренко (Россия, Беркут) vs Арслан Атакан (Турция)
▼ACB KB-4/ GRAND PRIX/ SUPERFIGHT 77 kg
Алим Набиев (Азербайджан) vs Масуд Рахими (Афганистан) - реванш
Рейтинговые бои:
▼ACB KB-4/ GRAND PRIX/ 86 kg
Артем Миронцев (Латвия) vs Ренат Ахметов (Пермь)
▼ACB KB-4/ GRAND PRIX/ 75 kg
Ислам Байбатыров (Россия, Беркут) vs Расул Эшивов (Россия)
▼ACB KB-4/ GRAND PRIX/ 57 kg
Рамиз Мамедов (Азербайджан) vs Бувайсар Пасхаев (Россия, Беркут)- реванш
▼ACB KB-4/ GRAND PRIX/ 70 kg
Арби Эмиев (Россия, Беркут) vs Максим Колпак (Крым)-реванш
▼ACB KB-4/ GRAND PRIX/ 67 kg
Ельшин Сергей (Пермь) vs Лом-Али Эскиев (Бельгия, Беркут)
Рустам Авилов (Челябинск) vs Влад Украинец (Пермь)

Video Info

General
ID : 0 (0x0)
Complete name : ACB KB 4 [13.11.2015 MPEG-TS 576p RU]-Rpunk.ts
Format : MPEG-TS
File size : 2.37 GiB
Duration : 3h 29mn
Overall bit rate mode : Variable
Overall bit rate : 1 626 Kbps
Video
ID : 301 (0x12D)
Menu ID : 1 (0x1)
Format : AVC
Format/Info : Advanced Video Codec
Format profile : High@L3
Format settings, CABAC : Yes
Format settings, ReFrames : 4 frames
Codec ID : 27
Duration : 3h 29mn
Bit rate : 1 372 Kbps
Width : 720 pixels
Height : 576 pixels
Display aspect ratio : 16:9
Frame rate : 25.000 fps
Standard : PAL
Color space : YUV
Chroma subsampling : 4:2:0
Bit depth : 8 bits
Scan type : Progressive
Bits/(Pixel*Frame) : 0.132
Stream size : 2.07 GiB (87%)
Writing library : x264 core 124
Audio
ID : 302 (0x12E)
Menu ID : 1 (0x1)
Format : MPEG Audio
Format version : Version 1
Format profile : Layer 3
Mode : Joint stereo
Mode extension : MS Stereo
Codec ID : 3
Duration : 3h 29mn
Bit rate mode : Constant
Bit rate : 128 Kbps
Channel(s) : 2 channels
Sampling rate : 44.1 KHz
Compression mode : Lossy
Delay relative to video : -720ms
Stream size : 191 MiB (8%)
[Профиль] [ЛС]

zorro

Пол: Женский

Стаж: 2 года 4 месяца

Сообщений: 1701

Откуда: アラスカ、ロシア

Создавать темы 21-Сен-2016 06:57 (спустя 10 месяцев 2 дня)

[Цитировать]

встал на раздачу
[Профиль] [ЛС]

BTW

Пол: Мужской

Стаж: 1 год 11 месяцев

Сообщений: 248

Откуда: Guåhån

Создавать темы 21-Сен-2016 07:05 (спустя 8 минут)

[Цитировать]

zorro, спасибо.
[Профиль] [ЛС]

BTW

Пол: Мужской

Стаж: 1 год 11 месяцев

Сообщений: 248

Откуда: Guåhån

Создавать темы 21-Сен-2016 16:38 (спустя 9 часов)

[Цитировать]

zorro, увы, не тянет вообще. У меня клиент не видит сидов на этом торренте. Разумеется, пробовал и загружать файл торрента по новой, и клиент перезапускал. Бесполезно.
[Профиль] [ЛС]

zorro

Пол: Женский

Стаж: 2 года 4 месяца

Сообщений: 1701

Откуда: アラスカ、ロシア

Создавать темы 21-Сен-2016 16:52 (спустя 13 минут)

[Цитировать]

странно, с Казахстана сегодня качал кто то
[Профиль] [ЛС]
Показать сообщения:    
Ответить на тему

Текущее время: 30-Май 12:19

Часовой пояс: UTC + 1



Вы не можете начинать темы
Вы не можете отвечать на сообщения
Вы не можете редактировать свои сообщения
Вы не можете удалять свои сообщения
Вы не можете голосовать в опросах
Вы не можете прикреплять файлы к сообщениям
Вы не можете скачивать файлы