SUPERKOMBAT World Grand Prix 2015 Final [07.11.2015 MPEG-TS 576p RU] :: Fight Tracker Russia

SUPERKOMBAT World Grand Prix 2015 Final [07.11.2015 MPEG-TS 576p RU]

Ответить на тему
 
Автор Сообщение

Romapunk ®

Пол: Мужской

Стаж: 2 года 1 месяц

Сообщений: 455

Откуда: Вологодская область

Создавать темы 18-Ноя-2015 16:46

[Цитировать]


Описание: SUPERKOMBAT World Grand Prix 2015 Final
Дата проведения: 07/11/2015
Место проведения: Bucharest/Romania
Язык комментариев: Russian
Продолжительность: 01:30:00

Video Info

General
ID : 41480 (0xA208)
Complete name : SUPERKOMBAT World Grand Prix 2015 Final [07.11.2015 MPEG-TS 576p RU]-Rpunk.ts
Format : MPEG-TS
File size : 1 013 MiB
Duration : 1h 29mn
Overall bit rate mode : Variable
Overall bit rate : 1 575 Kbps
Video
ID : 69 (0x45)
Menu ID : 1 (0x1)
Format : AVC
Format/Info : Advanced Video Codec
Format profile : High@L3
Format settings, CABAC : Yes
Format settings, ReFrames : 4 frames
Codec ID : 27
Duration : 20h 11mn
Bit rate : 1 372 Kbps
Width : 720 pixels
Height : 576 pixels
Display aspect ratio : 16:9
Frame rate : 25.000 fps
Standard : PAL
Color space : YUV
Chroma subsampling : 4:2:0
Bit depth : 8 bits
Scan type : Progressive
Bits/(Pixel*Frame) : 0.132
Stream size : 11.6 GiB
Writing library : x264 core 124
Audio
ID : 68 (0x44)
Menu ID : 1 (0x1)
Format : MPEG Audio
Format version : Version 1
Format profile : Layer 3
Codec ID : 3
Duration : 1h 29mn
Bit rate mode : Constant
Bit rate : 128 Kbps
Channel(s) : 1 channel
Sampling rate : 44.1 KHz
Compression mode : Lossy
Delay relative to video : -65ms
Stream size : 82.3 MiB (8%)
Language : Russian
[Профиль] [ЛС]

romanian

Пол: Не указан

Стаж: 1 год 8 месяцев

Сообщений: 10

Создавать темы 18-Ноя-2015 23:09 (спустя 6 часов)

[Цитировать]

благодаря, не английский? hd?
[Профиль] [ЛС]

Romapunk ®

Пол: Мужской

Стаж: 2 года 1 месяц

Сообщений: 455

Откуда: Вологодская область

Создавать темы 19-Ноя-2015 08:10 (спустя 9 часов)

[Цитировать]

3670благодаря, не английский? hd?
Russian SD
[Профиль] [ЛС]
Показать сообщения:    
Ответить на тему

Текущее время: 22-Фев 07:29

Часовой пояс: UTC + 1



Вы не можете начинать темы
Вы не можете отвечать на сообщения
Вы не можете редактировать свои сообщения
Вы не можете удалять свои сообщения
Вы не можете голосовать в опросах
Вы не можете прикреплять файлы к сообщениям
Вы не можете скачивать файлы