World Series of Fighting 24.Undercard [17.10.2015 720p ENG]

Ответить на тему
 
Автор Сообщение

Romapunk ®

Пол: Мужской

Стаж: 2 года 6 месяцев

Сообщений: 567

Откуда: Вологодская область

Создавать темы 18-Окт-2015 16:33

[Цитировать]


Описание: World Series of Fighting 24.Undercard
Дата проведения: 17/10/2015
Место проведения: USA
Язык комментариев: Английский
Продолжительность: 03:04:00

Fight card

WSOF 24 "Prelims" Undercard:
7. 145 lbs.: Rick Glenn (15-3) vs. Adam Ward (15-6)
6. 145 lbs.: Alexandre "Capitao" Almeida (16-5) vs. Saul "The Spider" Almeida (18-5)
5. 145 lbs.: Rodrigo "The Young Lion" Almeida (12-2) vs. Bruce "Pretty Boy" Boyington (10-8)
4. 185 lbs.: Justin Torrey (7-1) vs. Rex "T-Rex" Harris (7-2)
3. 185 lbs.: Louis "Handgunz" Taylor (11-3) vs. Nicolai Salchov (5-0)
2. 170 lbs.: Nunes Da Silva (5-1) vs. Colton Smith (5-4)
1. 265 lbs.: Pat Walsh (6-2) take on Tyler King (9-3)

Video Info

General
Complete name : World Series of Fighting 24.Undercard [17.10.2015 720p ENG]-WEB-DL-Rpunk.flv
Format : Flash Video
File size : 2.96 GiB
Duration : 3h 4mn
Overall bit rate : 2 299 Kbps
Video
Format : AVC
Format/Info : Advanced Video Codec
Format profile : Main@L4.1
Format settings, CABAC : Yes
Format settings, ReFrames : 1 frame
Codec ID : 7
Duration : 3h 4mn
Bit rate : 1 922 Kbps
Width : 1 280 pixels
Height : 720 pixels
Display aspect ratio : 16:9
Frame rate mode : Constant
Frame rate : 29.970 fps
Color space : YUV
Chroma subsampling : 4:2:0
Bit depth : 8 bits
Scan type : Progressive
Bits/(Pixel*Frame) : 0.070
Stream size : 2.47 GiB (84%)
Audio
Format : AAC
Format/Info : Advanced Audio Codec
Format profile : LC
Codec ID : 10
Duration : 3h 4mn
Bit rate : 312 Kbps
Channel(s) : 2 channels
Channel positions : Front: L R
Sampling rate : 48.0 KHz
Compression mode : Lossy
Stream size : 412 MiB (14%)
[Профиль] [ЛС]
Показать сообщения:    
Ответить на тему

Текущее время: 20-Июл 15:25

Часовой пояс: UTC + 1



Вы не можете начинать темы
Вы не можете отвечать на сообщения
Вы не можете редактировать свои сообщения
Вы не можете удалять свои сообщения
Вы не можете голосовать в опросах
Вы не можете прикреплять файлы к сообщениям
Вы не можете скачивать файлы