World Series of Fighting 24.Main Card [17.10.2015 MPEG-TS 576p RU Boets] :: Fight Tracker Russia

World Series of Fighting 24.Main Card [17.10.2015 MPEG-TS 576p RU Boets]

Ответить на тему
 
Автор Сообщение

Romapunk ®

Пол: Мужской

Стаж: 2 года 1 месяц

Сообщений: 446

Откуда: Вологодская область

Создавать темы 18-Окт-2015 11:09

[Цитировать]


Описание: World Series of Fighting 24.Main Card
Дата проведения: 17/10/2015
Место проведения: USA
Язык комментариев: Русский
Продолжительность: 02:40:00
Примечание: Из первого боя выпал кусок в 3 минуты. Поток не стабилен!

Fight card

WSOF 24 Main Event:
12. 170 lbs.: Yushin 'Thunder' Okami vs. Jon Fitch
WSOF 24 Main Card:
11. 265 lbs.: Blagoy Ivanov (c) vs. Derrick Mehmen For heavyweight title
10. 205 lbs.: Vinny Magalhaes vs. Matt Hamill
9. 170 lbs.: Tom Marcellino vs. Nick Newell
8. 125 lbs.: Magomed Bibulatov vs. Donavon Frelow (for inaugural Flyweight title)

Video Info

General
ID : 0 (0x0)
Complete name : World Series of Fighting 24.Main Card [17.10.2015 MPEG-TS 576p RU]-Rpunk.ts
Format : MPEG-TS
File size : 1.79 GiB
Duration : 2h 39mn
Overall bit rate mode : Variable
Overall bit rate : 1 610 Kbps
Video
ID : 301 (0x12D)
Menu ID : 1 (0x1)
Format : AVC
Format/Info : Advanced Video Codec
Format profile : High@L3
Format settings, CABAC : Yes
Format settings, ReFrames : 4 frames
Codec ID : 27
Duration : 2h 39mn
Bit rate : 1 372 Kbps
Width : 720 pixels
Height : 576 pixels
Display aspect ratio : 4:3
Frame rate : 25.000 fps
Standard : PAL
Color space : YUV
Chroma subsampling : 4:2:0
Bit depth : 8 bits
Scan type : Progressive
Bits/(Pixel*Frame) : 0.132
Stream size : 1.56 GiB (87%)
Writing library : x264 core 124
Audio
ID : 302 (0x12E)
Menu ID : 1 (0x1)
Format : MPEG Audio
Format version : Version 1
Format profile : Layer 3
Mode : Joint stereo
Mode extension : MS Stereo
Codec ID : 3
Duration : 2h 39mn
Bit rate mode : Constant
Bit rate : 128 Kbps
Channel(s) : 2 channels
Sampling rate : 44.1 KHz
Compression mode : Lossy
Stream size : 146 MiB (8%)


Последний раз редактировалось: Romapunk (2015-10-18 12:32), всего редактировалось 1 раз
[Профиль] [ЛС]

Superserafim

Пол: Мужской

Стаж: 2 года 1 месяц

Сообщений: 1933

Создавать темы 18-Окт-2015 12:04 (спустя 54 минуты)

[Цитировать]

Спасибо!
Ничего страшного, вроде бы у меня все нормально записалось.
Когда появиться рип 720р прикручу к нему русскую дорожку со своей записи
[Профиль] [ЛС]

Romapunk ®

Пол: Мужской

Стаж: 2 года 1 месяц

Сообщений: 446

Откуда: Вологодская область

Создавать темы 18-Окт-2015 12:31 (спустя 26 минут)

[Цитировать]

Хочу сюда залить вот эту байду:
UCC-TKO Events pack
Description:
The first Mixed Martial Arts (MMA) organization in Canada, dating back to 1999, since purchased by TKO Major League MMA. Notable fighters who have participated in UCC events and are recognizable from recent UFC and PRIDE FC events include:
* Georges St. Pierre
* Jeremy Horn
* Rich Franklin
* Jens Pulver
* Joe Doerksen
* Patrick Côté
* Denis Kang
* Elvis Sinosic
Стоит или нет? Вернее кому-нибудь это нужно или нет?
[Профиль] [ЛС]

Superserafim

Пол: Мужской

Стаж: 2 года 1 месяц

Сообщений: 1933

Создавать темы 18-Окт-2015 12:37 (спустя 6 минут)

[Цитировать]

Мне кажется, что стоит залить и тогда найдутся желающие скачать.
[Профиль] [ЛС]
Показать сообщения:    
Ответить на тему

Текущее время: 23-Янв 21:52

Часовой пояс: UTC + 1



Вы не можете начинать темы
Вы не можете отвечать на сообщения
Вы не можете редактировать свои сообщения
Вы не можете удалять свои сообщения
Вы не можете голосовать в опросах
Вы не можете прикреплять файлы к сообщениям
Вы не можете скачивать файлы