U-Japan [17.11.1996 480p JAP]

Ответить на тему
 
Автор Сообщение

Romapunk ®

Пол: Мужской

Стаж: 2 года 7 месяцев

Сообщений: 580

Откуда: Вологодская область

Создавать темы 16-Окт-2015 17:33

[Цитировать]


Описание: U-Japan
Дата проведения: 17/11/1996
Место проведения: Япония
Язык комментариев: Японский
Продолжительность: 02:05:00

Fight card

Shinji Katase vs Paul Varelans
Becky Levi vs Yoko Takahashi
Patrick Smith vs Dave Beneteau
Wallid Ismail vs Katsumi Usuta
Don Frye vs Mark Hall
Mitsuhiro Matsunaga vs Dan Severn
Sean Alvarez vs Yoji Anjo
Scott "Bam Bam" Bigelow vs Kimo Leopoldo

Video Info

General
Complete name : U-Japan.avi
Format : AVI
Format/Info : Audio Video Interleave
Format profile : OpenDML
File size : 1.94 GiB
Duration : 2h 5mn
Overall bit rate : 2 213 Kbps
Video
ID : 0
Format : MPEG-4 Visual
Format profile : Simple@L3
Format settings, BVOP : No
Format settings, QPel : No
Format settings, GMC : No warppoints
Format settings, Matrix : Default (H.263)
Codec ID : XVID
Codec ID/Hint : XviD
Duration : 2h 5mn
Bit rate : 2 067 Kbps
Width : 640 pixels
Height : 480 pixels
Display aspect ratio : 4:3
Frame rate : 29.970 fps
Original frame rate : 29.000 fps
Color space : YUV
Chroma subsampling : 4:2:0
Bit depth : 8 bits
Scan type : Progressive
Compression mode : Lossy
Bits/(Pixel*Frame) : 0.224
Stream size : 1.81 GiB (93%)
Writing library : XviD 1.2.1 (UTC 2008-12-04)
Audio
ID : 1
Format : MPEG Audio
Format version : Version 1
Format profile : Layer 3
Mode : Joint stereo
Mode extension : MS Stereo
Codec ID : 55
Codec ID/Hint : MP3
Duration : 2h 5mn
Bit rate mode : Constant
Bit rate : 128 Kbps
Channel(s) : 2 channels
Sampling rate : 44.1 KHz
Compression mode : Lossy
Stream size : 115 MiB (6%)
Alignment : Aligned on interleaves
Interleave, duration : 26 ms (0.78 video frame)
[Профиль] [ЛС]

zorro

Пол: Женский

Стаж: 2 года 5 месяцев

Сообщений: 1843

Откуда: アラスカ、ロシア

Создавать темы 16-Окт-2015 17:45 (спустя 11 минут)

[Цитировать]

спасибо, но без скриншотов никак не разобраться стоит качать или нет
[Профиль] [ЛС]

ujazzz

Пол: Мужской

Стаж: 2 года 3 месяца

Сообщений: 687

Откуда: Syberia

Создавать темы 16-Окт-2015 17:46 (спустя 1 минута)

[Цитировать]

Стоит. Точно.
[Профиль] [ЛС]
Показать сообщения:    
Ответить на тему

Текущее время: 26-Июл 19:40

Часовой пояс: UTC + 1



Вы не можете начинать темы
Вы не можете отвечать на сообщения
Вы не можете редактировать свои сообщения
Вы не можете удалять свои сообщения
Вы не можете голосовать в опросах
Вы не можете прикреплять файлы к сообщениям
Вы не можете скачивать файлы