Glory 24 [09.10.2015 MPEG-TS 576p RU]

Ответить на тему
 
Автор Сообщение

Romapunk ®

Пол: Мужской

Стаж: 2 года 9 месяцев

Сообщений: 691

Откуда: Вологодская область

Создавать темы 15-Окт-2015 16:16

[Цитировать]


Описание: Glory 24
Дата проведения: 09/10/2015
Место проведения: Денвер/США
Язык комментариев: Русский
Продолжительность: 02:04:00

Fight card

Main Card
Heavyweight Contender Tournament Final
Middleweight United States Joe Schilling vs Netherlands Jason Wilnis Middleweight Title eliminator
Middleweight United States Dustin Jacoby vs United States Wayne Barrett
Heavyweight Romania Benjamin Adegbuyi vs Croatia Mladen Brestovac Heavyweight Contender Tournament Semi Final
Heavyweight Australia Ben Edwards vs Netherlands Jahfarr Wilnis Heavyweight Contender Tournament Semi Final

Video Info

General
ID : 0 (0x0)
Complete name : Glory 24 [10.10.2015 MPEG-TS 576p RU]-Rpunk.ts
Format : MPEG-TS
File size : 1.41 GiB
Duration : 2h 3mn
Overall bit rate mode : Variable
Overall bit rate : 1 636 Kbps
Video
ID : 301 (0x12D)
Menu ID : 1 (0x1)
Format : AVC
Format/Info : Advanced Video Codec
Format profile : High@L3
Format settings, CABAC : Yes
Format settings, ReFrames : 4 frames
Codec ID : 27
Duration : 2h 3mn
Bit rate : 1 372 Kbps
Width : 720 pixels
Height : 576 pixels
Display aspect ratio : 4:3
Frame rate : 25.000 fps
Standard : PAL
Color space : YUV
Chroma subsampling : 4:2:0
Bit depth : 8 bits
Scan type : Progressive
Bits/(Pixel*Frame) : 0.132
Stream size : 1.23 GiB (87%)
Writing library : x264 core 124
Audio
ID : 302 (0x12E)
Menu ID : 1 (0x1)
Format : MPEG Audio
Format version : Version 1
Format profile : Layer 3
Mode : Joint stereo
Mode extension : MS Stereo
Codec ID : 3
Duration : 2h 3mn
Bit rate mode : Constant
Bit rate : 128 Kbps
Channel(s) : 2 channels
Sampling rate : 44.1 KHz
Compression mode : Lossy
Delay relative to video : -40ms
Stream size : 113 MiB (8%)
[Профиль] [ЛС]
Показать сообщения:    
Ответить на тему

Текущее время: 19-Окт 02:49

Часовой пояс: UTC + 1



Вы не можете начинать темы
Вы не можете отвечать на сообщения
Вы не можете редактировать свои сообщения
Вы не можете удалять свои сообщения
Вы не можете голосовать в опросах
Вы не можете прикреплять файлы к сообщениям
Вы не можете скачивать файлы