M-1 Challenge 62 Undercard [10.10.2015 MPEG-TS 576p RU] :: Fight Tracker Russia

M-1 Challenge 62 Undercard [10.10.2015 MPEG-TS 576p RU]

Ответить на тему
 
Автор Сообщение

Romapunk ®

Пол: Мужской

Стаж: 2 года 3 месяца

Сообщений: 474

Откуда: Вологодская область

Создавать темы 12-Окт-2015 10:59

[Цитировать]


Описание: M-1 Challenge 62. Undercard
Дата проведения: 10/10/2015
Место проведения: Сочи/Россия
Язык комментариев: Русский
Продолжительность: 02:00:00

Video Info

General
ID : 0 (0x0)
Complete name : M-1 Challenge Undercard [10.10.2015 MPEG-TS 576p RU]-Rpunk.ts
Format : MPEG-TS
File size : 1.58 GiB
Duration : 2h 19mn
Overall bit rate mode : Variable
Overall bit rate : 1 623 Kbps
Video
ID : 301 (0x12D)
Menu ID : 1 (0x1)
Format : AVC
Format/Info : Advanced Video Codec
Format profile : High@L3
Format settings, CABAC : Yes
Format settings, ReFrames : 4 frames
Codec ID : 27
Duration : 2h 19mn
Bit rate : 1 372 Kbps
Width : 720 pixels
Height : 576 pixels
Display aspect ratio : 4:3
Frame rate : 25.000 fps
Standard : PAL
Color space : YUV
Chroma subsampling : 4:2:0
Bit depth : 8 bits
Scan type : Progressive
Bits/(Pixel*Frame) : 0.132
Stream size : 1.38 GiB (87%)
Writing library : x264 core 124
Audio
ID : 302 (0x12E)
Menu ID : 1 (0x1)
Format : MPEG Audio
Format version : Version 1
Format profile : Layer 3
Mode : Joint stereo
Mode extension : MS Stereo
Codec ID : 3
Duration : 2h 19mn
Bit rate mode : Constant
Bit rate : 128 Kbps
Channel(s) : 2 channels
Sampling rate : 44.1 KHz
Compression mode : Lossy
Delay relative to video : -360ms
Stream size : 128 MiB (8%)
[Профиль] [ЛС]

Superserafim

Пол: Мужской

Стаж: 2 года 3 месяца

Сообщений: 2056

Создавать темы 13-Окт-2015 16:58 (спустя 1 день 5 часов)

[Цитировать]

Закрыто по просьбе правообладетеля
[Профиль] [ЛС]
Показать сообщения:    
Ответить на тему

Текущее время: 24-Мар 21:00

Часовой пояс: UTC + 1



Вы не можете начинать темы
Вы не можете отвечать на сообщения
Вы не можете редактировать свои сообщения
Вы не можете удалять свои сообщения
Вы не можете голосовать в опросах
Вы не можете прикреплять файлы к сообщениям
Вы не можете скачивать файлы