M-1 Challenge 62.Main Card [10.10.2015 MPEG-TS 576p RU] :: Fight Tracker Russia

M-1 Challenge 62.Main Card [10.10.2015 MPEG-TS 576p RU]

Ответить на тему
 
Автор Сообщение

Romapunk ®

Пол: Мужской

Стаж: 2 года 2 месяца

Сообщений: 456

Откуда: Вологодская область

Создавать темы 12-Окт-2015 09:45

[Цитировать]


Описание: M-1 Challenge 62.Main Card
Дата проведения: 10/10/2015
Место проведения: Сочи/Россия
Язык комментариев: Русский (Бобец и Ко)
Продолжительность: 02:35:00

Video Info

General
ID : 58608 (0xE4F0)
Complete name : M-1 Challenge 62.Main Card [10.10.2015 MPEG-TS 576p RU]-Rpunk.TS
Format : MPEG-TS
File size : 1.71 GiB
Duration : 2h 34mn
Overall bit rate mode : Variable
Overall bit rate : 1 584 Kbps
Video
ID : 69 (0x45)
Menu ID : 1 (0x1)
Format : AVC
Format/Info : Advanced Video Codec
Format profile : High@L3
Format settings, CABAC : Yes
Format settings, ReFrames : 4 frames
Codec ID : 27
Duration : 16h 5mn
Bit rate : 1 372 Kbps
Width : 720 pixels
Height : 576 pixels
Display aspect ratio : 4:3
Frame rate : 25.000 fps
Standard : PAL
Color space : YUV
Chroma subsampling : 4:2:0
Bit depth : 8 bits
Scan type : Progressive
Bits/(Pixel*Frame) : 0.132
Stream size : 9.29 GiB
Audio
ID : 68 (0x44)
Menu ID : 1 (0x1)
Format : MPEG Audio
Format version : Version 1
Format profile : Layer 3
Mode : Joint stereo
Mode extension : MS Stereo
Codec ID : 3
Duration : 2h 34mn
Bit rate mode : Constant
Bit rate : 128 Kbps
Channel(s) : 2 channels
Sampling rate : 44.1 KHz
Compression mode : Lossy
Delay relative to video : -194ms
Stream size : 142 MiB (8%)
Language : Russian
[Профиль] [ЛС]

ufcthebest

Пол: Не указан

Стаж: 2 года 2 месяца

Сообщений: 29

Создавать темы 12-Окт-2015 10:33 (спустя 48 минут)

[Цитировать]

Бобец и взаимные анусавылизывания))))
[Профиль] [ЛС]

Romapunk ®

Пол: Мужской

Стаж: 2 года 2 месяца

Сообщений: 456

Откуда: Вологодская область

Создавать темы 12-Окт-2015 11:02 (спустя 28 минут)

[Цитировать]

Кто скачал,не уходите с раздачи.Я весь день стоять не буду!Имейте совесть)
[Профиль] [ЛС]

Иван

Пол: Не указан

Стаж: 1 год 9 месяцев

Сообщений: 7

Создавать темы 12-Окт-2015 13:34 (спустя 2 часа 32 минуты)

[Цитировать]

3095Кто скачал,не уходите с раздачи.Я весь день стоять не буду!Имейте совесть)
Хорошо, за релиз -Спасибо!!!
[Профиль] [ЛС]

Romapunk ®

Пол: Мужской

Стаж: 2 года 2 месяца

Сообщений: 456

Откуда: Вологодская область

Создавать темы 12-Окт-2015 13:42 (спустя 7 минут)

[Цитировать]

3097
3095Кто скачал,не уходите с раздачи.Я весь день стоять не буду!Имейте совесть)
Хорошо, за релиз -Спасибо!!!
Последние минуты трансы не записались)Ну это и не так важно...
[Профиль] [ЛС]

ivan

Пол: Не указан

Стаж: 1 год 5 месяцев

Сообщений: 2

Создавать темы 13-Окт-2015 04:57 (спустя 15 часов)

[Цитировать]

Рейтинг 0,06 уже не позволяет вам скачивать новые торренты
Что за фигня? у меня стоит предыдущее на раздаче
[Профиль] [ЛС]

Pifon

Пол: Не указан

Стаж: 1 год 8 месяцев

Сообщений: 4

Создавать темы 13-Окт-2015 13:19 (спустя 8 часов)

[Цитировать]

Спасибо
[Профиль] [ЛС]

Superserafim

Пол: Мужской

Стаж: 2 года 2 месяца

Сообщений: 1986

Создавать темы 13-Окт-2015 16:59 (спустя 3 часа)

[Цитировать]

Закрыто по просьбе правообладетеля
[Профиль] [ЛС]

ivan

Пол: Не указан

Стаж: 1 год 5 месяцев

Сообщений: 2

Создавать темы 14-Окт-2015 12:03 (спустя 19 часов)

[Цитировать]

не успел из-за рейтинга, эта система полная фигня
[Профиль] [ЛС]

karchik

Пол: Мужской

Стаж: 2 года 2 месяца

Сообщений: 1631

Откуда: Уругвай

Создавать темы 14-Окт-2015 12:26 (спустя 23 минуты)

[Цитировать]

3120не успел из-за рейтинга, эта система полная фигня
Ну почему же?Я вот могу днями качать благодаря своему " рейтингу". Как так получилось?
Отвечаю:
- создавал и создаю раздачи ( для рейтинга очень хорошо )
- скачивал и стоял на раздаче "золотых раздач" ( скачанное не учитывается)
- просто стоять на раздаче ( не скачали сегодня, скачают через неделю )
Все это делается ради обычных пользователей.
Ведь если бы не было ограничений , то любой мог скачать то что хотел и сразу уйти с раздачи.
А теперь вопрос:
Как Вам ( или мне ) скачать что то если уже ушли с раздачи?
Мне уже и рейтинг не сильно важен. Мне бы скачать!!!!!!
Вот по этому рейтинг этот для обычных пользователей во благо.Для того что бы вы могли скачивать что то.
Скачал сам- дай скачать другому.
Вы же что то скачали уже как то в прошлом.Но ничего не раздается у Вас. При чем тут "фигня" если Вы не хотите раздавать?
[Профиль] [ЛС]

yvallejo

Пол: Не указан

Стаж: 1 год 4 месяца

Сообщений: 1

Создавать темы 18-Окт-2015 05:14 (спустя 3 дня)

[Цитировать]

thnaks from chile
[Профиль] [ЛС]
Показать сообщения:    
Ответить на тему

Текущее время: 27-Фев 00:37

Часовой пояс: UTC + 1



Вы не можете начинать темы
Вы не можете отвечать на сообщения
Вы не можете редактировать свои сообщения
Вы не можете удалять свои сообщения
Вы не можете голосовать в опросах
Вы не можете прикреплять файлы к сообщениям
Вы не можете скачивать файлы