ONE Championship 32 Tigers of Asia [09.10.2015 MPEG-TS 576p RU] :: Fight Tracker Russia

ONE Championship 32 Tigers of Asia [09.10.2015 MPEG-TS 576p RU]

Ответить на тему
 
Автор Сообщение

Romapunk ®

Пол: Мужской

Стаж: 2 года 3 месяца

Сообщений: 473

Откуда: Вологодская область

Создавать темы 09-Окт-2015 17:56

[Цитировать]


Описание: ONE Championship 32: Tigers of Asia
Дата проведения: 09/10/2015
Место проведения: Putra Indoor Stadium/Kuala Lumpur, Malaysia
Язык комментариев: Русский
Продолжительность: 02:20:00
Примечание: Присутствует реклама

Fight card

Igor Svirid vs. Vitaly Bigdash For middleweight title
Irina Mazepa vs. Ann Osman
Honorio Banario vs. Ev Ting
Peter Davis vs. Adrian Pang
Eric Kelly vs. Hiroshige Tanaka
Riku Shibuya vs. Eugene Toquero

Video Info

General
ID : 0 (0x0)
Complete name : ONE Championship 32 Tigers of Asia [09.10.2015 MPEG-TS 576p RU]-Rpunk.ts
Format : MPEG-TS
File size : 1.70 GiB
Duration : 2h 29mn
Overall bit rate mode : Variable
Overall bit rate : 1 627 Kbps
Video
ID : 301 (0x12D)
Menu ID : 1 (0x1)
Format : AVC
Format/Info : Advanced Video Codec
Format profile : High@L3
Format settings, CABAC : Yes
Format settings, ReFrames : 4 frames
Codec ID : 27
Duration : 2h 29mn
Bit rate : 1 372 Kbps
Width : 720 pixels
Height : 576 pixels
Display aspect ratio : 4:3
Frame rate : 25.000 fps
Standard : PAL
Color space : YUV
Chroma subsampling : 4:2:0
Bit depth : 8 bits
Scan type : Progressive
Bits/(Pixel*Frame) : 0.132
Stream size : 1.48 GiB (87%)
Writing library : x264 core 124
Audio
ID : 302 (0x12E)
Menu ID : 1 (0x1)
Format : MPEG Audio
Format version : Version 1
Format profile : Layer 3
Mode : Joint stereo
Mode extension : MS Stereo
Codec ID : 3
Duration : 2h 29mn
Bit rate mode : Constant
Bit rate : 128 Kbps
Channel(s) : 2 channels
Sampling rate : 44.1 KHz
Compression mode : Lossy
Delay relative to video : -400ms
Stream size : 137 MiB (8%)
[Профиль] [ЛС]

sypavel

Пол: Мужской

Стаж: 1 год 8 месяцев

Сообщений: 24

Создавать темы 09-Окт-2015 18:17 (спустя 20 минут)

[Цитировать]

Romapunk? Ты где ?
[Профиль] [ЛС]

Romapunk ®

Пол: Мужской

Стаж: 2 года 3 месяца

Сообщений: 473

Откуда: Вологодская область

Создавать темы 09-Окт-2015 18:21 (спустя 3 минуты)

[Цитировать]

Здесь) Не тянет? Ну с этим я ничего поделать не могу)Надо ждать,пока кто-нибудь стянет.
[Профиль] [ЛС]

sypavel

Пол: Мужской

Стаж: 1 год 8 месяцев

Сообщений: 24

Создавать темы 09-Окт-2015 18:28 (спустя 7 минут)

[Цитировать]

Ладно, все равно, молодчина !!!!
[Профиль] [ЛС]
Показать сообщения:    
Ответить на тему

Текущее время: 23-Мар 15:21

Часовой пояс: UTC + 1



Вы не можете начинать темы
Вы не можете отвечать на сообщения
Вы не можете редактировать свои сообщения
Вы не можете удалять свои сообщения
Вы не можете голосовать в опросах
Вы не можете прикреплять файлы к сообщениям
Вы не можете скачивать файлы