CES.MMA.XXVIII.Hawn.vs.Loffer.2015.03.13.HDTV.x264-NWCHD

Ответить на тему
 
Автор Сообщение

Romapunk ®

Пол: Мужской

Стаж: 2 года 7 месяцев

Сообщений: 582

Откуда: Вологодская область

Создавать темы 09-Окт-2015 08:32

[Цитировать]


Описание: CES.MMA.XXVIII.Hawn.vs.Loffer.2015.03.13.HDTV.x264-NWCHD
Дата проведения: 13/03/2015
Место проведения: USA
Язык комментариев: Английский
Продолжительность: 02:24:00
Примечание: Выложено по просьбе BTW

Fight card

Main Card:
Lightweight: Rick Hawn (19-4) vs. Derek Loffer (9-2)
Lightweight: Luis Felix (12-8) vs. Reggie Merriweather (6-5)
Bantamweight: Andre Soukhamthath (8-2) vs. Brian Kelleher (11-7)
Middleweight: Todd Chattelle (12-11) vs. Roger Carroll (15-11)
Cruiserweight: Mike Mucitelli (7-1) vs. Tyler King (8-2)
Bantamweight: Kin Moy (6-1) vs. Joey Gomez (5-0)
Featherweight: Kyle Bochniak (4-0) vs. Dominic Warr (4-5)

Video Info

General
Complete name : CES.MMA.XXVIII.Hawn.vs.Loffer.2015.03.13.HDTV.x264-NWCHD.flv
Format : Flash Video
File size : 1 009 MiB
Duration : 2h 23mn
Overall bit rate : 983 Kbps
Tagging application : Yet Another Metadata Injector for FLV - Version 1.9
Video
Format : AVC
Format/Info : Advanced Video Codec
Format profile : High@L3
Format settings, CABAC : Yes
Format settings, ReFrames : 4 frames
Codec ID : 7
Duration : 2h 23mn
Bit rate : 826 Kbps
Width : 704 pixels
Height : 400 pixels
Display aspect ratio : 16:9
Frame rate mode : Constant
Frame rate : 24.000 fps
Color space : YUV
Chroma subsampling : 4:2:0
Bit depth : 8 bits
Scan type : Progressive
Bits/(Pixel*Frame) : 0.122
Stream size : 870 MiB (86%)
Audio
Format : AAC
Format/Info : Advanced Audio Codec
Format profile : LC
Codec ID : 10
Duration : 2h 23mn
Bit rate : 126 Kbps
Channel(s) : 2 channels
Channel positions : Front: L R
Sampling rate : 48.0 KHz
Compression mode : Lossy
Delay relative to video : 341ms
Stream size : 136 MiB (14%)
[Профиль] [ЛС]

BTW

Пол: Женский

Стаж: 2 года 1 месяц

Сообщений: 280

Откуда: Guåhån

Создавать темы 09-Окт-2015 10:47 (спустя 2 часа 15 минут)

[Цитировать]

Спасибо.
[Профиль] [ЛС]
Показать сообщения:    
Ответить на тему

Текущее время: 28-Июл 12:02

Часовой пояс: UTC + 1



Вы не можете начинать темы
Вы не можете отвечать на сообщения
Вы не можете редактировать свои сообщения
Вы не можете удалять свои сообщения
Вы не можете голосовать в опросах
Вы не можете прикреплять файлы к сообщениям
Вы не можете скачивать файлы