ONE Championship 31: Odyssey of Champions.Full Event [2015.09.27 576p CHN] :: Fight Tracker Russia

ONE Championship 31: Odyssey of Champions.Full Event [2015.09.27 576p CHN]

Ответить на тему
 
Автор Сообщение

Romapunk ®

Пол: Мужской

Стаж: 2 года 3 месяца

Сообщений: 474

Откуда: Вологодская область

Создавать темы 08-Окт-2015 11:30

[Цитировать]


Описание: ONE Championship 31: Odyssey of Champions
Дата проведения: 27/09/2015
Место проведения: Istora Senayan in Jakarta, Indonesia
Язык комментариев: Китайский
Продолжительность: 04:00:00

Fight card

Main Card
Featherweight Martin Nguyen vs. Marat Gafurov For the Interim ONE Featherweight Championship
Catchweight Arnaud Lepont vs. Vincent Latoel
Lightweight Roger Huerta vs. Koji Ando
Middleweight Leandro Ataides vs. Aleksei Butorin
Featherweight Herbert Burns vs. Timofey Nastyukhin
Light Heavyweight Jake Butler vs. Cristiano Kaminishi
Bantamweight Muin Gafurov vs. Casey Suire
Undercard
Bantamweight Sotir Kichukov vs. Yusup Saadulaev
Women's Strawweight Mona Samir vs. Angela Lee

Video Info

General
Complete name : ONE Championship 31.Odyssey of Champions .Full Event [2015.09.27 576p CHN]-WEB-DL-Rpunk.mp4
Format : MPEG-4
Format profile : Base Media
Codec ID : isom
File size : 2.07 GiB
Duration : 3h 59mn
Overall bit rate mode : Variable
Overall bit rate : 1 235 Kbps
Writing application : Lavf56.15.102
Video
ID : 1
Format : AVC
Format/Info : Advanced Video Codec
Format profile : High@L3.1
Format settings, CABAC : Yes
Format settings, ReFrames : 4 frames
Codec ID : avc1
Codec ID/Info : Advanced Video Coding
Duration : 3h 59mn
Bit rate mode : Variable
Bit rate : 1 097 Kbps
Maximum bit rate : 1 669 Kbps
Width : 960 pixels
Height : 576 pixels
Display aspect ratio : 16:9
Frame rate mode : Variable
Frame rate : 25.000 fps
Minimum frame rate : 8.333 fps
Maximum frame rate : 90 000.000 fps
Color space : YUV
Chroma subsampling : 4:2:0
Bit depth : 8 bits
Scan type : Progressive
Bits/(Pixel*Frame) : 0.079
Stream size : 1.84 GiB (89%)
Audio
ID : 2
Format : AAC
Format/Info : Advanced Audio Codec
Format profile : LC
Codec ID : 40
Duration : 3h 59mn
Bit rate mode : Variable
Bit rate : 125 Kbps
Maximum bit rate : 131 Kbps
Channel(s) : 2 channels
Channel positions : Front: L R
Sampling rate : 48.0 KHz
Compression mode : Lossy
Stream size : 215 MiB (10%)
[Профиль] [ЛС]
Показать сообщения:    
Ответить на тему

Текущее время: 24-Мар 18:50

Часовой пояс: UTC + 1



Вы не можете начинать темы
Вы не можете отвечать на сообщения
Вы не можете редактировать свои сообщения
Вы не можете удалять свои сообщения
Вы не можете голосовать в опросах
Вы не можете прикреплять файлы к сообщениям
Вы не можете скачивать файлы