SUPERKOMBAT World Grand Prix 2015 Final Elimination [02.10.2015 MPEG-TS 576p RU] :: Fight Tracker Russia

SUPERKOMBAT World Grand Prix 2015 Final Elimination [02.10.2015 MPEG-TS 576p RU]

Ответить на тему
 
Автор Сообщение

Romapunk ®

Пол: Мужской

Стаж: 2 года 5 месяцев

Сообщений: 521

Откуда: Вологодская область

Создавать темы 03-Окт-2015 11:01

[Цитировать]


Описание: SUPERKOMBAT World Grand Prix 2015 Final Elimination
Дата проведения: 02/10/2015
Место проведения: Милан/Италия
Язык комментариев: Русский
Продолжительность: 02:00:00

Fight card

Main Card (Eurosport)
Heavyweight Romania Cătălin Moroșanu vs Poland Tomasz Czerwiński
Super cruiserweight Romania Andrei Stoica vs Moldova Pavel Voronin
Middleweight Romania Amansio Paraschiv vs Greece Giannis Skordilis
Cruiserweight Romania Bogdan Stoica vs Netherlands Patrick Veenstra
Light heavyweight Turkey Atakan Arslan vs Italy Giuseppe De Domenico
Light heavyweight Romania Alexandru Negrea vs Morocco Mohammed El Boulahiati

Video Info

General
ID : 56337 (0xDC11)
Complete name : SUPERKOMBAT World Grand Prix 2015 Final Elimination [02.10.2015 MPEG-TS 576p RU]-Rpunk .TS
Format : MPEG-TS
File size : 1.31 GiB
Duration : 1h 59mn
Overall bit rate mode : Variable
Overall bit rate : 1 559 Kbps
Video
ID : 89 (0x59)
Menu ID : 1 (0x1)
Format : AVC
Format/Info : Advanced Video Codec
Format profile : High@L3
Format settings, CABAC : Yes
Format settings, ReFrames : 4 frames
Codec ID : 27
Duration : 1h 59mn
Bit rate : 1 372 Kbps
Width : 720 pixels
Height : 576 pixels
Display aspect ratio : 16:9
Frame rate : 25.000 fps
Standard : PAL
Color space : YUV
Chroma subsampling : 4:2:0
Bit depth : 8 bits
Scan type : Progressive
Bits/(Pixel*Frame) : 0.132
Stream size : 1.13 GiB (87%)
Writing library : x264 core 124
Audio
ID : 88 (0x58)
Menu ID : 1 (0x1)
Format : MPEG Audio
Format version : Version 1
Format profile : Layer 3
Codec ID : 3
Duration : 1h 59mn
Bit rate mode : Constant
Bit rate : 128 Kbps
Channel(s) : 1 channel
Sampling rate : 44.1 KHz
Compression mode : Lossy
Delay relative to video : -120ms
Stream size : 110 MiB (8%)
Language : Russian
[Профиль] [ЛС]

romanian

Пол: Не указан

Стаж: 2 года

Сообщений: 10

Создавать темы 17-Ноя-2015 12:16 (спустя 1 месяц 14 дней)

[Цитировать]

благодаря
[Профиль] [ЛС]
Показать сообщения:    
Ответить на тему

Текущее время: 28-Май 15:56

Часовой пояс: UTC + 1



Вы не можете начинать темы
Вы не можете отвечать на сообщения
Вы не можете редактировать свои сообщения
Вы не можете удалять свои сообщения
Вы не можете голосовать в опросах
Вы не можете прикреплять файлы к сообщениям
Вы не можете скачивать файлы