EFN(Eurasia Fight Nights) Dagestan [25.09.2015 MPEG-TS 576p RU]

Ответить на тему
 
Автор Сообщение

Romapunk ®

Пол: Мужской

Стаж: 2 года 6 месяцев

Сообщений: 527

Откуда: Вологодская область

Создавать темы 26-Сен-2015 01:46

[Цитировать]


Описание: EFN(Eurasia Fight Nights) Dagestan
Дата проведения: 25/09/2015
Место проведения: Махачкала/Россия
Язык комментариев: Русский (Ян Баранчук)
Продолжительность: 02:23:00

Fight card

Vitaly Minakov vs. G. Dos Santos 287 lbs
Rasul Mirzaev vs. Kevin Croom 145 lbs
Ayub Gimbatov vs. Pavel Katrunov 185 lbs
Akhmet Aliev vs. Vener Galiev 162 lbs
Movlid Khaibulaev vs. Vladimir Egoyan 145 lbs
Sergey Pavlovich vs. S. Murtazaliev 265 lbs
G. Hiramagomedov vs. Tomasz Romanowski 170 lbs
M. Abdurahimov vs. Vadim Kozhuev 265 lbs

Video Info

General
ID : 1 (0x1)
Complete name :EFN(Eurasia Fight Night) Dagestan [25.09.2015 MPEG-TS 576p RU]
Format : MPEG-TS
File size : 1.00 GiB
Duration : 47mn 5s
Start time : UTC 2015-09-25 18:39:02
End time : UTC 2015-09-25 19:26:07
Overall bit rate mode : Variable
Overall bit rate : 3 039 Kbps
Network name : DTT - Russian Federation
Country : RUS (10)
Timezone : +03:00:00
Video
ID : 1031 (0x407)
Menu ID : 1030 (0x406)
Format : AVC
Format/Info : Advanced Video Codec
Format profile : Main@L3
Format settings, CABAC : Yes
Format settings, ReFrames : 3 frames
Codec ID : 27
Duration : 47mn 5s
Bit rate : 2 695 Kbps
Width : 720 pixels
Height : 576 pixels
Display aspect ratio : 4:3
Frame rate : 25.000 fps
Standard : Component
Color space : YUV
Chroma subsampling : 4:2:0
Bit depth : 8 bits
Scan type : Interlaced
Scan order : Top Field First
Bits/(Pixel*Frame) : 0.260
Stream size : 908 MiB (89%)
Color range : Limited
Color primaries : BT.601 PAL
Transfer characteristics : BT.470 System B, BT.470 System G
Matrix coefficients : BT.601
Audio
ID : 1032 (0x408)
Menu ID : 1030 (0x406)
Format : MPEG Audio
Format version : Version 1
Format profile : Layer 2
Codec ID : 3
Duration : 47mn 5s
Bit rate mode : Constant
Bit rate : 192 Kbps
Channel(s) : 2 channels
Sampling rate : 48.0 KHz
Compression mode : Lossy
Delay relative to video : -953ms
Stream size : 64.7 MiB (6%)
[Профиль] [ЛС]

Romapunk ®

Пол: Мужской

Стаж: 2 года 6 месяцев

Сообщений: 527

Откуда: Вологодская область

Создавать темы 26-Сен-2015 07:47 (спустя 6 часов)

[Цитировать]

Писал с цифры. Хотел склеить в один файл,а чего-то не одна прога не берет)
[Профиль] [ЛС]
Показать сообщения:    
Ответить на тему

Текущее время: 25-Июн 14:50

Часовой пояс: UTC + 1



Вы не можете начинать темы
Вы не можете отвечать на сообщения
Вы не можете редактировать свои сообщения
Вы не можете удалять свои сообщения
Вы не можете голосовать в опросах
Вы не можете прикреплять файлы к сообщениям
Вы не можете скачивать файлы