Все включено (Александр Волков, Александр Шлеменко) [2013г. Россия 2 480p]

Ответить на тему
 
Автор Сообщение

Romapunk ®

Пол: Мужской

Стаж: 2 года 10 месяцев

Сообщений: 740

Откуда: Вологодская область

Создавать темы 22-Сен-2015 15:01

[Цитировать]


Описание: Передача "Все Включено" с канала Россия 2
Язык комментариев: Русский
Продолжительность: 00:40:00

Video Info

General
Complete name : Все включено (Александр Волков, Александр Шлеменко) [2013г. Россия 2 480p].FLV
Format : Flash Video
File size : 223 MiB
Duration : 39mn 51s
Overall bit rate : 784 Kbps
httphostheader : r12---sn-n8v7ln7r.c.youtube.com
Video
Format : AVC
Format/Info : Advanced Video Codec
Format profile : Main@L3
Format settings, CABAC : Yes
Format settings, ReFrames : 3 frames
Codec ID : 7
Duration : 39mn 51s
Bit rate : 647 Kbps
Width : 640 pixels
Height : 480 pixels
Display aspect ratio : 4:3
Frame rate mode : Constant
Frame rate : 25.000 fps
Color space : YUV
Chroma subsampling : 4:2:0
Bit depth : 8 bits
Scan type : Progressive
Bits/(Pixel*Frame) : 0.084
Stream size : 184 MiB (83%)
Audio
Format : AAC
Format/Info : Advanced Audio Codec
Format profile : LC
Codec ID : 10
Duration : 39mn 51s
Bit rate : 129 Kbps
Channel(s) : 2 channels
Channel positions : Front: L R
Sampling rate : 44.1 KHz
Compression mode : Lossy
Stream size : 36.7 MiB (16%)
[Профиль] [ЛС]

Romapunk ®

Пол: Мужской

Стаж: 2 года 10 месяцев

Сообщений: 740

Откуда: Вологодская область

Создавать темы 22-Сен-2015 15:03 (спустя 1 минута)

[Цитировать]

Завалялась на компе.Недавно тока случайно нашел ее.Скачал как-то года 2,5 назад.Даже сам не смотрел)
[Профиль] [ЛС]
Показать сообщения:    
Ответить на тему

Текущее время: 20-Ноя 01:17

Часовой пояс: UTC + 1



Вы не можете начинать темы
Вы не можете отвечать на сообщения
Вы не можете редактировать свои сообщения
Вы не можете удалять свои сообщения
Вы не можете голосовать в опросах
Вы не можете прикреплять файлы к сообщениям
Вы не можете скачивать файлы