M-1 Challenge 61 - Battle of Narts.Undercard [20.09.2015 MPEG-TS 576p RU]

Ответить на тему
 
Автор Сообщение

Romapunk ®

Пол: Мужской

Стаж: 2 года 7 месяцев

Сообщений: 600

Откуда: Вологодская область

Создавать темы 20-Сен-2015 18:17

[Цитировать]


Описание: M-1 Challenge 61 - Battle of Narts.Undercard
Дата проведения: 20/09/2015
Место проведения: Назрань/Россия
Язык комментариев: Русский
Продолжительность: 03:00:00

Список поединков

Under Card
Ramazan Esenbaev vs. Damir Ismagulov
Sergey Kutsy vs. Akramat Evkurov
Maksim Grabovic vs. Adam Elmurziev
Vyacheslav Ten vs. Rustam Gadzhiev
Evgeni Boldyrev vs. Murad Izmailov
Dovletdzhan Yagshimuradov vs. Mikhail Ragozin
Elmar Memedov vs. Ruslan Esmurziev

Данные видео

General
ID : 0 (0x0)
Complete name : D:\З А Г Р У З К И С И Н Е Т А\M-1 Challenge 61 - Battle of Narts.Undercard [20.09.2015 MPEG-TS 576p RU]-Rpunk .ts
Format : MPEG-TS
File size : 2.02 GiB
Duration : 2h 57mn
Overall bit rate mode : Variable
Overall bit rate : 1 627 Kbps
Video
ID : 301 (0x12D)
Menu ID : 1 (0x1)
Format : AVC
Format/Info : Advanced Video Codec
Format profile : High@L3
Format settings, CABAC : Yes
Format settings, ReFrames : 4 frames
Codec ID : 27
Duration : 2h 57mn
Bit rate : 1 372 Kbps
Width : 720 pixels
Height : 576 pixels
Display aspect ratio : 4:3
Frame rate : 25.000 fps
Standard : PAL
Color space : YUV
Chroma subsampling : 4:2:0
Bit depth : 8 bits
Scan type : Progressive
Bits/(Pixel*Frame) : 0.132
Stream size : 1.76 GiB (87%)
Writing library : x264 core 124
Encoding settings : cabac=1 / ref=1 / deblock=1:-1:-1 / analyse=0x3:0x13 / me=dia / subme=1 / psy=1 / psy_rd=1.00:0.15 / mixed_ref=0 / me_range=16 / chroma_me=1 / trellis=0 / 8x8dct=1 / cqm=0 / deadzone=21,11 / fast_pskip=1 / chroma_qp_offset=0 / threads=8 / sliced_threads=0 / nr=0 / decimate=1 / interlaced=0 / bluray_compat=0 / constrained_intra=0 / bframes=3 / b_pyramid=2 / b_adapt=1 / b_bias=0 / direct=1 / weightb=1 / open_gop=0 / weightp=1 / keyint=60 / keyint_min=6 / scenecut=40 / intra_refresh=0 / rc_lookahead=0 / rc=cbr / mbtree=0 / bitrate=1372 / ratetol=1.0 / qcomp=0.60 / qpmin=10 / qpmax=51 / qpstep=4 / vbv_maxrate=1372 / vbv_bufsize=1500 / nal_hrd=none / ip_ratio=1.40 / pb_ratio=1.30 / aq=1:1.00
Audio
ID : 302 (0x12E)
Menu ID : 1 (0x1)
Format : MPEG Audio
Format version : Version 1
Format profile : Layer 3
Mode : Joint stereo
Mode extension : MS Stereo
Codec ID : 3
Duration : 2h 57mn
Bit rate mode : Constant
Bit rate : 128 Kbps
Channel(s) : 2 channels
Sampling rate : 44.1 KHz
Compression mode : Lossy
Delay relative to video : -1s 760ms
Stream size : 163 MiB (8%)
[Профиль] [ЛС]

Superserafim

Пол: Мужской

Стаж: 2 года 8 месяцев

Сообщений: 2361

Создавать темы 20-Сен-2015 21:18 (спустя 3 часа)

[Цитировать]

Закрыто по просьбе правообладетеля
[Профиль] [ЛС]

Romapunk ®

Пол: Мужской

Стаж: 2 года 7 месяцев

Сообщений: 600

Откуда: Вологодская область

Создавать темы 20-Сен-2015 21:28 (спустя 10 минут)

[Цитировать]

Ха-ха.Быстро стали палить) Да и за бесплатно не больно охота смотреть,не то что за 4 евролавандоса)
[Профиль] [ЛС]

Allll

Пол: Не указан

Стаж: 2 года 4 месяца

Сообщений: 212

Создавать темы 21-Сен-2015 22:53 (спустя 1 день 1 час)

[Цитировать]

на что надеется Филькинштейн с этим жлобством ?!
[Профиль] [ЛС]
Показать сообщения:    
Ответить на тему

Текущее время: 22-Авг 10:17

Часовой пояс: UTC + 1



Вы не можете начинать темы
Вы не можете отвечать на сообщения
Вы не можете редактировать свои сообщения
Вы не можете удалять свои сообщения
Вы не можете голосовать в опросах
Вы не можете прикреплять файлы к сообщениям
Вы не можете скачивать файлы